<?xml version="1.0" standalone="no"?>
<!DOCTYPE svg PUBLIC "-//W3C//DTD SVG 1.1//EN" "http://www.w3.org/Graphics/SVG/1.1/DTD/svg11.dtd" >
<svg>
<metadata>
Created by FontForge 20110222 at Mon Mar 16 22:23:31 2015
 By deploy user
Copyright (c) 1987, 1991, 1993, 2002 Adobe Systems Incorporated.  All Rights Reserved.
</metadata>
<defs>
<font id="FuturaStd-LightOblique" horiz-adv-x="620" >
  <font-face 
    font-family="Futura Std Light"
    font-weight="300"
    font-style="oblique"
    font-stretch="normal"
    units-per-em="1000"
    panose-1="2 11 4 2 2 2 4 2 3 3"
    ascent="825"
    descent="-175"
    x-height="462"
    cap-height="754"
    bbox="-175 -302 1246 971"
    underline-thickness="50"
    underline-position="-50"
    slope="-9"
    unicode-range="U+0020-FB02"
  />
<missing-glyph horiz-adv-x="611" 
d="M111 0v700h500v-700h-500zM361 395l170 255h-340zM391 350l170 -255v510zM191 50h340l-170 255zM161 605v-510l170 255z" />
    <glyph glyph-name="fi" unicode="fi" horiz-adv-x="475" 
d="M453 462l-73 -462h-45l73 462h45zM462 657q17 0 27 -12t8 -29q-3 -17 -17 -29t-31 -12t-27 12t-7 29q2 17 16 29t31 12zM189 420l-67 -420h-45l67 420h-51l6 42h51l33 207q12 80 36 113q41 56 112 56q21 0 39 -7l-7 -41q-4 1 -11 2.5t-13 2.5t-12 1q-28 0 -47 -12
t-29.5 -36t-14.5 -41t-9 -47l-32 -198h116l-6 -42h-116z" />
    <glyph glyph-name="fl" unicode="fl" horiz-adv-x="439" 
d="M189 420l-67 -420h-45l67 420h-51l6 42h51l33 207q12 80 36 113q41 56 112 56q21 0 39 -7l-7 -41q-4 1 -11 2.5t-13 2.5t-12 1q-28 0 -47 -12t-29.5 -36t-14.5 -41t-9 -47l-32 -198h116l-6 -42h-116zM493 825l-131 -825h-45l131 825h45z" />
    <glyph glyph-name=".notdef" horiz-adv-x="611" 
d="M111 0v700h500v-700h-500zM361 395l170 255h-340zM391 350l170 -255v510zM191 50h340l-170 255zM161 605v-510l170 255z" />
    <glyph glyph-name=".null" horiz-adv-x="0" 
 />
    <glyph glyph-name="nonmarkingreturn" horiz-adv-x="333" 
 />
    <glyph glyph-name="space" unicode=" " horiz-adv-x="310" 
 />
    <glyph glyph-name="exclam" unicode="!" horiz-adv-x="320" 
d="M171 72q17 0 27.5 -12t7.5 -29t-17 -29t-31 -12t-27 12t-7 29t16.5 29t30.5 12zM159 143l96 611h48l-96 -611h-48z" />
    <glyph glyph-name="quotedbl" unicode="&#x22;" horiz-adv-x="278" 
d="M177 754h48l-49 -240h-27zM291 754h48l-49 -240h-27z" />
    <glyph glyph-name="numbersign" unicode="#" 
d="M580 276l-8 -48h-126l-73 -228h-46l72 228h-135l-69 -228h-48l69 228h-121l8 48h128l48 162h-123l8 48h130l66 212h50l-66 -212h136l66 212h50l-67 -212h110l-8 -48h-118l-51 -162h118zM464 438h-136l-49 -162h136z" />
    <glyph glyph-name="dollar" unicode="$" 
d="M404 362l-51 -322q64 15 112 63.5t58 110.5q5 29 -3.5 52t-30.5 42t-38.5 29t-46.5 25zM371 437l44 279q-53 0 -97 -43t-53 -98q-5 -34 10 -60.5t35 -41t51 -31.5q7 -3 10 -5zM308 38l55 346q-79 43 -104 65q-54 50 -42 124q13 80 69.5 132.5t136.5 58.5l17 105h45
l-17 -107q46 -6 83 -34t53 -70l-42 -30q-33 80 -102 88l-47 -300q81 -45 96 -56q72 -53 62 -140q0 -5 -1 -10q-12 -79 -77.5 -141t-146.5 -77l-18 -113h-45l17 111q-78 2 -128 45t-65 118l44 19q13 -61 54.5 -99t102.5 -35z" />
    <glyph glyph-name="percent" unicode="%" horiz-adv-x="664" 
d="M301 761q64 0 101 -42t27 -107q-10 -63 -60.5 -105t-114.5 -42t-101.5 42t-27.5 105q10 65 61 107t115 42zM294 719q-45 0 -82.5 -31.5t-44.5 -75.5q-7 -43 21 -74t72 -31q45 0 82.5 31t44.5 74q7 45 -20.5 76t-72.5 31zM530 289q64 0 101 -42t27 -107
q-10 -63 -60.5 -105t-114.5 -42t-101.5 42t-27.5 105q10 65 61 107t115 42zM523 247q-45 0 -82.5 -31t-44.5 -76q-7 -43 21 -74t73 -31t82 31t44 74q7 44 -20.5 75.5t-72.5 31.5zM660 771l30 -17l-570 -771l-28 18z" />
    <glyph glyph-name="ampersand" unicode="&#x26;" horiz-adv-x="642" 
d="M431 723q-40 0 -73.5 -32t-39.5 -73q-3 -19 1 -39t10 -33t17.5 -34.5t16.5 -32.5q11 7 36 23.5t38.5 26.5t31 26t27 34t12.5 40q6 39 -16 66.5t-61 27.5zM592 0l-75 125q-187 -140 -300 -140q-83 0 -131 58.5t-35 140.5q6 38 27 74t43.5 60t65 54t66 44t71.5 42
q-3 5 -10.5 18t-11 19.5t-10 19t-9.5 20.5t-7 20t-5.5 22t-1.5 22t2 24q9 60 59.5 102.5t110.5 42.5q58 0 91 -41t23 -99q-5 -31 -19.5 -57.5t-41 -50t-49 -39.5t-60.5 -39l146 -254l112 105l34 -20l-124 -120l91 -153h-52zM346 420l-54 -32q-40 -23 -63 -38.5t-55 -41.5
t-50.5 -55.5t-23.5 -63.5q-11 -65 24 -112t100 -47q41 0 94.5 24t88 47t88.5 62z" />
    <glyph glyph-name="quotesingle" unicode="'" horiz-adv-x="222" 
d="M206 754h48l-49 -240h-27z" />
    <glyph glyph-name="parenleft" unicode="(" horiz-adv-x="240" 
d="M261 780l32 -26q-97 -220 -135 -459q-35 -223 -8 -447l-41 -25q-20 111 -17.5 232.5t21.5 239.5q19 123 57.5 258t90.5 227z" />
    <glyph glyph-name="parenright" unicode=")" horiz-adv-x="240" 
d="M185 754l42 26q21 -118 17 -239.5t-23 -245.5q-19 -118 -57.5 -250t-88.5 -222l-33 25q100 231 134 447q37 234 9 459z" />
    <glyph glyph-name="asterisk" unicode="*" horiz-adv-x="619" 
d="M385 604l19 150h49l-27 -150l150 50l7 -47l-151 -43l73 -119l-44 -29l-65 124l-106 -124l-35 28l110 120l-137 43l23 47z" />
    <glyph glyph-name="plus" unicode="+" 
d="M330 280l37 232h48l-37 -232h232l-7 -48h-232l-37 -232h-48l37 232h-232l7 48h232z" />
    <glyph glyph-name="comma" unicode="," horiz-adv-x="310" 
d="M165 74l43 -14l-119 -226l-29 11z" />
    <glyph glyph-name="hyphen" unicode="-" horiz-adv-x="190" 
d="M54 342h190l-7 -45h-190z" />
    <glyph glyph-name="period" unicode="." horiz-adv-x="310" 
d="M166 72q17 0 27.5 -12t7.5 -29t-17 -29t-31 -12t-27 12t-7 29t16.5 29t30.5 12z" />
    <glyph glyph-name="slash" unicode="/" horiz-adv-x="640" 
d="M701 825l32 -18l-683 -949l-34 19z" />
    <glyph glyph-name="zero" unicode="0" 
d="M431 764q54 0 96.5 -24.5t67 -64.5t40 -90.5t15.5 -102t-5 -100.5q-10 -62 -37 -127.5t-68 -126t-102.5 -99.5t-129.5 -39q-55 0 -98 26t-66.5 67.5t-38.5 93.5t-14 104.5t6 100.5q10 62 37 127t68.5 123t101.5 95t127 37zM316 35q57 0 108 34.5t85 88.5t56.5 112
t31.5 112q3 37 4 81t-11 89.5t-30.5 82.5t-54 60.5t-81.5 23.5q-57 0 -108.5 -35.5t-85.5 -89t-56 -109t-29 -103.5q-11 -51 -5 -111.5t22 -113t56.5 -87.5t97.5 -35z" />
    <glyph glyph-name="one" unicode="1" 
d="M420 709h-119l30 45h144l-119 -754h-48z" />
    <glyph glyph-name="two" unicode="2" 
d="M183 45h358l-7 -45h-465l330 309q42 39 57 54t48.5 52t49.5 68.5t21 62.5q12 73 -32.5 123t-117.5 50q-78 0 -137 -50.5t-69 -127.5h-48q17 91 69 143q39 37 91 58.5t101 21.5q94 0 150 -63.5t41 -157.5q-7 -47 -40.5 -98t-60.5 -78t-81 -78z" />
    <glyph glyph-name="three" unicode="3" 
d="M361 370l7 45q68 2 121 45.5t64 111.5q10 61 -27.5 104t-98.5 43q-64 0 -109.5 -39t-59.5 -104h-48q20 87 79 137.5t146 50.5q81 0 129.5 -56.5t35.5 -137.5q-9 -58 -46.5 -105t-93.5 -70q53 -21 78.5 -72t16.5 -111q-15 -94 -89 -158t-168 -64q-87 0 -139.5 55
t-38.5 140h48q-4 -67 32.5 -108.5t104.5 -41.5q71 0 130.5 51.5t70.5 122.5q12 72 -30.5 116.5t-114.5 44.5z" />
    <glyph glyph-name="four" unicode="4" 
d="M497 188h106l-7 -45h-106l-23 -143h-48l23 143h-407l1 6l549 631h6zM449 188l70 446h-6l-382 -440l-1 -6h319z" />
    <glyph glyph-name="five" unicode="5" 
d="M643 709h-252l-95 -204q27 8 58 8q108 0 170.5 -74.5t45.5 -182.5q-19 -115 -109.5 -190.5t-205.5 -75.5q-68 0 -122 33t-81 92l47 18q23 -45 67.5 -71.5t97.5 -26.5q95 0 169 63.5t89 158.5q14 89 -41.5 150t-145.5 61q-58 0 -120 -34l148 320h287z" />
    <glyph glyph-name="six" unicode="6" 
d="M461 764l34 -29l-203 -235l2 -2q51 20 103 20q108 0 173 -78.5t48 -186.5q-16 -100 -104 -181q-88 -82 -207 -82q-110 0 -176 76.5t-49 186.5q14 88 81 166zM316 35q90 0 165 64t89 155q14 90 -40.5 154.5t-144.5 64.5q-91 0 -166 -64.5t-89 -154.5q-14 -91 40.5 -155
t145.5 -64z" />
    <glyph glyph-name="seven" unicode="7" 
d="M640 709h-458l7 45h547l-660 -762l-33 29z" />
    <glyph glyph-name="eight" unicode="8" 
d="M368 369q-70 0 -128 -49t-69 -118t32 -118t113 -49q69 0 127.5 49t69.5 118t-32 118t-113 49zM308 -10q-90 0 -145 59t-41 148q21 136 154 196q-45 24 -66 71t-13 101q14 85 81 142t153 57t135 -57t35 -142q-8 -54 -44.5 -101t-88.5 -71q113 -59 92 -196
q-14 -89 -88 -148t-164 -59zM424 719q-63 0 -115.5 -45t-62.5 -108t28 -107.5t102 -44.5q63 0 115.5 44.5t62.5 107.5t-29 108t-101 45z" />
    <glyph glyph-name="nine" unicode="9" 
d="M279 -8l-35 29l205 235l-2 2q-52 -20 -104 -20q-108 0 -173 78t-48 186q17 109 108.5 185.5t201.5 76.5q113 0 178 -77t47 -190q-13 -82 -81 -161zM425 719q-90 0 -165.5 -64t-90.5 -154q-14 -90 41.5 -154t145.5 -64t164.5 64t88.5 154q15 90 -39.5 154t-144.5 64z" />
    <glyph glyph-name="colon" unicode=":" horiz-adv-x="310" 
d="M166 72q17 0 27.5 -12t7.5 -29t-17 -29t-31 -12t-27 12t-7 29t16.5 29t30.5 12zM230 472q17 0 27 -12t7 -29q-2 -17 -16 -29t-31 -12t-27 12t-8 29q3 17 17 29t31 12z" />
    <glyph glyph-name="semicolon" unicode=";" horiz-adv-x="310" 
d="M165 74l43 -14l-119 -226l-29 11zM236 472q17 0 27 -12t7 -29q-2 -17 -16 -29t-31 -12t-27 12t-8 29q3 17 17 29t31 12z" />
    <glyph glyph-name="less" unicode="&#x3c;" 
d="M147 256l425 -215l-7 -46l-475 235l9 53l547 223l-7 -46z" />
    <glyph glyph-name="equal" unicode="=" 
d="M624 365l-8 -48h-512l8 48h512zM597 195l-8 -48h-512l8 48h512z" />
    <glyph glyph-name="greater" unicode="&#x3e;" 
d="M60 41l495 215l-428 204l7 46l477 -223l-9 -53l-549 -235z" />
    <glyph glyph-name="question" unicode="?" horiz-adv-x="491" 
d="M402 303h48q-8 -69 -59.5 -115t-122.5 -46q-66 0 -105 42.5t-29 106.5q11 65 54 100.5t113 52.5q34 9 50.5 13.5t41 15.5t37 24t24 34.5t15.5 50.5q9 57 -22 97t-89 40q-56 0 -99.5 -36.5t-50.5 -90.5q-5 -32 -4 -53h-46q0 42 4 64q11 70 71 115.5t133 45.5
q80 0 122 -50.5t29 -129.5q-12 -79 -60 -118.5t-134 -60.5q-26 -6 -39.5 -10t-34 -13t-31.5 -19.5t-21.5 -28t-13.5 -40.5q-7 -46 19.5 -76.5t75.5 -30.5t83 34t41 82zM254 72q17 0 27.5 -12t7.5 -29t-17 -29t-31 -12t-27 12t-7 29t16.5 29t30.5 12z" />
    <glyph glyph-name="at" unicode="@" horiz-adv-x="800" 
d="M368 193q46 1 92.5 38t66.5 81l71 147q14 31 -10.5 69t-74.5 38q-74 0 -147.5 -89.5t-86.5 -172.5q-7 -47 16 -79.5t73 -31.5zM637 541l22 47h44l-154 -324q-17 -26 -15.5 -48.5t38.5 -22.5q61 0 132 84.5t84 167.5q10 60 -7.5 113t-54 88t-87.5 55.5t-108 20.5
q-138 0 -253 -104.5t-137 -244.5q-22 -138 63 -239.5t220 -101.5q86 0 164.5 35t130.5 101h56q-56 -81 -151 -129.5t-207 -48.5q-160 0 -251.5 114t-65.5 276q17 104 82 193t159.5 140t194.5 51q145 0 230.5 -92t63.5 -231q-19 -116 -107 -203t-172 -87q-59 0 -67 49
q-66 -49 -138 -49q-63 0 -91.5 41.5t-18.5 105.5q18 112 102.5 211t188.5 99q76 0 110 -67z" />
    <glyph glyph-name="A" unicode="A" horiz-adv-x="641" 
d="M525 248h-331l-140 -248h-49l439 779l192 -779h-49zM514 293l-89 364l-206 -364h295z" />
    <glyph glyph-name="B" unicode="B" horiz-adv-x="565" 
d="M187 367l-51 -322h115q40 0 56.5 0.5t47.5 7.5t55 21q81 49 95 134q7 43 -8 80t-49 55q-44 24 -155 24h-106zM274 0h-193l119 754h151q52 0 87.5 -8.5t61.5 -35.5q54 -54 39 -156q-17 -105 -112 -154q68 -14 102.5 -66t23.5 -124q-14 -96 -94 -156q-73 -54 -185 -54z
M241 709l-47 -297h83h16.5h16.5t15 0.5t16 1t14 2t16 3.5t14.5 5t16 7t15.5 9q63 40 75 121q14 85 -43 124q-34 24 -125 24h-83z" />
    <glyph glyph-name="C" unicode="C" horiz-adv-x="739" 
d="M785 666l-10 -66q-35 53 -99.5 86t-134.5 33q-140 0 -258 -103.5t-140 -243.5q-21 -133 64 -233q42 -47 101.5 -75.5t124.5 -28.5q66 0 144 32.5t127 82.5l-11 -66q-127 -94 -266 -94q-158 0 -257 114.5t-74 271.5q25 160 159.5 274t295.5 114q68 0 129.5 -26t104.5 -72z
" />
    <glyph glyph-name="D" unicode="D" horiz-adv-x="652" 
d="M81 0l119 754h136q90 0 153 -20.5t112 -74.5q103 -112 76 -283q-27 -164 -160 -276q-68 -57 -138.5 -78.5t-161.5 -21.5h-136zM136 45h87q160 0 268 91q115 99 138 240q24 151 -70 251q-43 46 -99 64t-132 18h-87z" />
    <glyph glyph-name="E" unicode="E" horiz-adv-x="507" 
d="M553 709h-312l-43 -274h304l-7 -45h-304l-55 -345h312l-7 -45h-360l119 754h360z" />
    <glyph glyph-name="F" unicode="F" horiz-adv-x="444" 
d="M497 709h-256l-43 -274h249l-7 -45h-249l-62 -390h-48l119 754h304z" />
    <glyph glyph-name="G" unicode="G" horiz-adv-x="824" 
d="M527 363h318q-11 -79 -37 -139.5t-81 -111.5q-63 -58 -144.5 -90t-161.5 -32q-103 0 -184 52t-119.5 141t-22.5 191q17 106 84 196t166 142t205 52q198 0 299 -176l-44 -31q-39 77 -107 119.5t-158 42.5q-138 0 -256.5 -103t-139.5 -239q-23 -140 62 -241t226 -101
q119 0 235 83q98 74 123 200h-270z" />
    <glyph glyph-name="H" unicode="H" horiz-adv-x="716" 
d="M198 434h458l50 320h48l-119 -754h-48l62 389h-458l-62 -389h-48l119 754h48z" />
    <glyph glyph-name="I" unicode="I" horiz-adv-x="210" 
d="M248 754l-119 -754h-48l119 754h48z" />
    <glyph glyph-name="J" unicode="J" horiz-adv-x="218" 
d="M208 754h48l-117 -740q-13 -81 -48.5 -126.5t-111.5 -45.5q-41 0 -71 22.5t-41 59.5l40 27q9 -28 31.5 -46t51.5 -18q27 0 46 11t29.5 32t16 39.5t9.5 44.5z" />
    <glyph glyph-name="K" unicode="K" horiz-adv-x="569" 
d="M193 402l413 352h64l-426 -363l330 -391h-63l-305 360l-23 -20l-54 -340h-48l119 754h48z" />
    <glyph glyph-name="L" unicode="L" horiz-adv-x="327" 
d="M248 754l-112 -709h192l-7 -45h-240l119 754h48z" />
    <glyph glyph-name="M" unicode="M" horiz-adv-x="897" 
d="M842 0l-30 624h-2l-366 -649l-159 649h-2l-228 -624h-46l285 779l169 -686l386 686l39 -779h-46z" />
    <glyph glyph-name="N" unicode="N" horiz-adv-x="843" 
d="M881 754l-123 -779l-526 673l-103 -648h-48l121 764l527 -668l104 658h48z" />
    <glyph glyph-name="O" unicode="O" horiz-adv-x="854" 
d="M548 764q104 0 186 -52t121 -141.5t23 -193.5q-17 -104 -84.5 -193.5t-166 -141.5t-202.5 -52q-159 0 -256.5 114t-72.5 273t158.5 273t293.5 114zM541 719q-141 0 -258 -101t-139 -241q-15 -91 19 -170t106 -125.5t164 -46.5q140 0 257 101.5t140 240.5
q22 140 -63.5 241t-225.5 101z" />
    <glyph glyph-name="P" unicode="P" horiz-adv-x="472" 
d="M186 358l-57 -358h-48l119 754h133q54 0 91.5 -8.5t64.5 -35.5q59 -57 44 -155q-16 -97 -87 -149q-62 -48 -175 -48h-85zM193 403h87q86 0 138 41q56 44 67 113q13 79 -37 122q-35 30 -128 30h-79z" />
    <glyph glyph-name="Q" unicode="Q" horiz-adv-x="854" 
d="M569 309l127 -166q114 106 133 228q23 143 -60 245.5t-227 102.5q-140 0 -258 -101.5t-140 -240.5q-22 -142 63.5 -242t228.5 -100q111 0 222 79l-157 195h68zM742 0l-55 80q-124 -90 -262 -90q-162 0 -258 113t-71 274q17 105 84 194.5t165.5 141t203.5 51.5
q159 0 256.5 -113t72.5 -271q-24 -148 -153 -273l82 -107h-65z" />
    <glyph glyph-name="R" unicode="R" horiz-adv-x="488" 
d="M264 357l190 -357h-55l-189 357h-24l-57 -357h-48l119 754h94q39 0 62 -1.5t53 -10.5t51 -26q68 -54 51 -162q-15 -96 -83 -147.5t-164 -49.5zM193 402h61q91 0 137 35q60 43 72 119q7 44 -7.5 81.5t-50.5 54.5q-33 17 -133 17h-31z" />
    <glyph glyph-name="S" unicode="S" horiz-adv-x="544" 
d="M568 658l-38 -28q-43 89 -139 89q-60 0 -107.5 -42t-57.5 -102q-4 -28 3.5 -50t29.5 -40t36 -26.5t45 -24.5l132 -75q77 -55 62 -150q-15 -92 -96 -155.5t-175 -63.5q-77 0 -129 44t-67 118l45 19q15 -63 55 -99.5t106 -36.5q75 0 138.5 52t75.5 126q4 28 -4.5 51.5
t-28 40.5t-38.5 29t-45 26l-12 6l-125 72q-70 49 -56 135q13 84 75.5 137.5t147.5 53.5q57 0 102.5 -28.5t64.5 -77.5z" />
    <glyph glyph-name="T" unicode="T" horiz-adv-x="450" 
d="M361 709l-112 -709h-48l112 709h-195l7 45h438l-7 -45h-195z" />
    <glyph glyph-name="U" unicode="U" horiz-adv-x="660" 
d="M585 298l72 456h48l-74 -470q-8 -49 -14 -76t-23.5 -63.5t-46.5 -66.5q-44 -42 -102 -65t-117 -23q-58 0 -109 22.5t-82 65.5q-27 42 -28.5 97.5t10.5 108.5l74 470h48l-72 -456q-7 -45 -10 -70.5t1 -61t18 -58.5q21 -34 66.5 -53.5t91.5 -19.5q47 0 98 19.5t82 53.5
q22 23 36.5 59t19.5 60t13 71z" />
    <glyph glyph-name="V" unicode="V" horiz-adv-x="555" 
d="M172 754l122 -644h2l325 644h48l-397 -779l-148 779h48z" />
    <glyph glyph-name="W" unicode="W" horiz-adv-x="1105" 
d="M179 754l110 -648l390 686l174 -686l311 648h48l-377 -779l-178 697l-397 -697l-129 779h48z" />
    <glyph glyph-name="X" unicode="X" horiz-adv-x="494" 
d="M279 385l-140 369h53l122 -324l224 324h53l-255 -369l146 -385h-52l-130 341l-236 -341h-52z" />
    <glyph glyph-name="Y" unicode="Y" horiz-adv-x="559" 
d="M306 322l-183 432h53l162 -382l282 382h53l-319 -432l-51 -322h-48z" />
    <glyph glyph-name="Z" unicode="Z" horiz-adv-x="568" 
d="M103 45h447l-7 -45h-531l572 709h-416l7 45h500z" />
    <glyph glyph-name="bracketleft" unicode="[" horiz-adv-x="300" 
d="M224 703l-135 -855h122l-8 -51h-170l151 957h170l-8 -51h-122z" />
    <glyph glyph-name="backslash" unicode="\" horiz-adv-x="640" 
d="M163 807l38 18l407 -806l-40 -19z" />
    <glyph glyph-name="bracketright" unicode="]" horiz-adv-x="300" 
d="M163 -152l135 855h-122l8 51h170l-151 -957h-170l8 51h122z" />
    <glyph glyph-name="asciicircum" unicode="^" 
d="M149 301h-47l301 453h52l159 -453h-46l-146 408z" />
    <glyph glyph-name="underscore" unicode="_" horiz-adv-x="500" 
d="M480 -125h-500l8 50h500z" />
    <glyph glyph-name="grave" unicode="`" horiz-adv-x="313" 
d="M185 695l64 19l78 -147l-41 -17z" />
    <glyph glyph-name="a" unicode="a" horiz-adv-x="560" 
d="M324 430q-77 0 -137.5 -59t-72.5 -137q-13 -83 28 -142.5t122 -59.5q85 0 143 59.5t72 147.5q13 82 -29.5 136.5t-125.5 54.5zM556 462l-73 -462h-45l13 83h-2q-31 -43 -84.5 -68t-106.5 -25q-103 0 -154 70t-35 174q16 103 89 170.5t175 67.5q54 0 98 -23.5t66 -66.5h2
l12 80h45z" />
    <glyph glyph-name="b" unicode="b" horiz-adv-x="560" 
d="M306 32q82 0 141.5 59.5t72.5 142.5q12 79 -29.5 137.5t-119.5 58.5q-85 0 -143.5 -56t-71.5 -141q-13 -84 27 -142.5t123 -58.5zM77 0l131 825h45l-70 -443h2q35 43 86.5 66.5t105.5 23.5q102 0 153 -67.5t35 -170.5q-16 -104 -90 -174t-177 -70q-53 0 -98 25t-63 68h-2
l-13 -83h-45z" />
    <glyph glyph-name="c" unicode="c" horiz-adv-x="477" 
d="M497 415l-10 -60q-56 75 -151 75q-81 0 -145.5 -59t-76.5 -139q-13 -80 32.5 -140t125.5 -60q102 0 183 83l-9 -61q-84 -64 -179 -64q-102 0 -158.5 70t-39.5 172q16 101 95.5 170.5t180.5 69.5q94 0 152 -57z" />
    <glyph glyph-name="d" unicode="d" horiz-adv-x="560" 
d="M264 32q85 0 143 59.5t72 147.5q13 82 -29.5 136.5t-125.5 54.5q-77 0 -137.5 -59t-72.5 -137q-13 -83 28 -142.5t122 -59.5zM438 0l13 83h-2q-31 -43 -84.5 -68t-106.5 -25q-103 0 -154 70t-35 174q16 103 89 170.5t175 67.5q54 0 98 -23.5t66 -66.5h2l70 443h45
l-131 -825h-45z" />
    <glyph glyph-name="e" unicode="e" horiz-adv-x="510" 
d="M514 227h-401q-16 -86 28 -140.5t126 -54.5q52 0 99.5 28.5t80.5 76.5l34 -22q-40 -60 -99.5 -92.5t-127.5 -32.5q-100 0 -150.5 70.5t-34.5 171.5q15 99 89 169.5t173 70.5q102 0 151 -71t32 -174zM120 269h356q2 66 -40 113.5t-111 47.5q-70 0 -129.5 -47.5
t-75.5 -113.5z" />
    <glyph glyph-name="f" unicode="f" horiz-adv-x="240" 
d="M189 420l-67 -420h-45l67 420h-51l6 42h51l33 207q12 80 36 113q41 56 112 56q21 0 39 -7l-7 -41q-4 1 -11 2.5t-13 2.5t-12 1q-28 0 -47 -12t-29.5 -36t-14.5 -41t-9 -47l-32 -198h116l-6 -42h-116z" />
    <glyph glyph-name="g" unicode="g" horiz-adv-x="567" 
d="M331 430q-77 0 -137.5 -59t-72.5 -137q-13 -83 28 -142.5t122 -59.5q85 0 143 59.5t72 147.5q13 82 -29.5 136.5t-125.5 54.5zM563 462l-70 -440q-10 -66 -25.5 -110.5t-51.5 -85.5q-78 -89 -198 -89q-94 0 -149.5 53t-46.5 145h45q-8 -70 37 -113t117 -43q100 0 159 69
q51 61 69 175l9 57h-2q-38 -41 -90.5 -65.5t-104.5 -24.5q-98 0 -149.5 71t-35.5 171q16 101 92 170.5t176 69.5q107 0 160 -90h2l12 80h45z" />
    <glyph glyph-name="h" unicode="h" horiz-adv-x="490" 
d="M208 825h45l-69 -435h2q56 82 150 82q85 0 110.5 -48.5t10.5 -144.5l-44 -279h-45l44 279q5 42 5.5 76t-22 54.5t-70.5 20.5q-135 0 -167 -202l-36 -228h-45z" />
    <glyph glyph-name="i" unicode="i" horiz-adv-x="234" 
d="M212 462l-73 -462h-45l73 462h45zM221 657q17 0 27 -12t8 -29q-3 -17 -17 -29t-31 -12t-27 12t-7 29q2 17 16 29t31 12z" />
    <glyph glyph-name="j" unicode="j" horiz-adv-x="234" 
d="M212 462l-116 -732h-45l116 732h45zM221 657q17 0 27 -12t8 -29q-3 -17 -17 -29t-31 -12t-27 12t-7 29q2 17 16 29t31 12z" />
    <glyph glyph-name="k" unicode="k" horiz-adv-x="427" 
d="M253 825l-89 -559l221 196h58l-226 -200l218 -262h-59l-192 231l-30 -26l-32 -205h-45l131 825h45z" />
    <glyph glyph-name="l" unicode="l" horiz-adv-x="199" 
d="M253 825l-131 -825h-45l131 825h45z" />
    <glyph glyph-name="m" unicode="m" horiz-adv-x="725" 
d="M195 462l-9 -58h2q21 32 55.5 50t71.5 18q44 0 74.5 -22t41.5 -62q52 84 149 84q82 0 105 -47.5t9 -134.5l-46 -290h-45l47 296q4 37 4 66.5t-20 48.5t-62 19q-118 0 -145 -164l-42 -266h-45l45 285q5 37 5 69.5t-21.5 54t-63.5 21.5q-115 0 -143 -176l-40 -254h-45
l73 462h45z" />
    <glyph glyph-name="n" unicode="n" horiz-adv-x="490" 
d="M195 462l-11 -72h2q56 82 150 82q85 0 110.5 -48.5t10.5 -144.5l-44 -279h-45l44 279q5 42 5.5 76t-22 54.5t-70.5 20.5q-135 0 -167 -202l-36 -228h-45l73 462h45z" />
    <glyph glyph-name="o" unicode="o" horiz-adv-x="547" 
d="M347 472q102 0 161.5 -69.5t43.5 -171.5t-98 -171.5t-184 -69.5q-99 0 -158 70.5t-44 169.5q16 100 97.5 171t181.5 71zM337 430q-81 0 -146 -59t-78 -141q-12 -80 34.5 -139t126.5 -59q85 0 152 57t80 141q13 85 -35 142.5t-134 57.5z" />
    <glyph glyph-name="p" unicode="p" horiz-adv-x="560" 
d="M369 430q-85 0 -143 -60.5t-72 -148.5q-13 -82 29.5 -135.5t124.5 -53.5q79 0 138.5 57t72.5 137q13 83 -27.5 143.5t-122.5 60.5zM195 462l-13 -83h2q31 43 84.5 68t106.5 25q103 0 154 -70.5t35 -174.5q-16 -103 -88.5 -170t-175.5 -67q-55 0 -98.5 23.5t-64.5 66.5h-2
l-56 -350h-45l116 732h45z" />
    <glyph glyph-name="q" unicode="q" horiz-adv-x="560" 
d="M327 430q-85 0 -143 -60.5t-72 -148.5q-13 -82 29.5 -135.5t124.5 -53.5q79 0 138.5 57t72.5 137q13 83 -27.5 143.5t-122.5 60.5zM556 462l-116 -732h-45l56 350h-2q-35 -43 -86.5 -66.5t-106.5 -23.5q-102 0 -153 66.5t-35 169.5q16 105 90 175.5t177 70.5q53 0 98 -25
t63 -68h2l13 83h45z" />
    <glyph glyph-name="r" unicode="r" horiz-adv-x="278" 
d="M195 462l-9 -60h2q40 70 111 70q23 0 47 -11l-30 -40q-15 9 -31 9q-27 0 -48.5 -13.5t-33.5 -29.5t-21.5 -46.5t-12.5 -46t-8 -46.5q-1 -8 -2 -12l-37 -236h-45l73 462h45z" />
    <glyph glyph-name="s" unicode="s" horiz-adv-x="375" 
d="M373 398l-42 -20q-16 52 -73 52q-30 0 -58 -21.5t-32 -50.5q-5 -30 15 -49t51.5 -30.5t62.5 -25t49 -43.5t11 -76q-10 -63 -59.5 -103.5t-112.5 -40.5q-58 0 -96 33t-43 89l46 14q14 -94 100 -94q43 0 78 30t43 74q3 20 -1.5 35.5t-17.5 26t-25 16t-32 13.5
q-30 12 -46 19.5t-37 23t-28.5 36.5t-3.5 49q8 51 50.5 84t94.5 33q36 0 66 -21t40 -53z" />
    <glyph glyph-name="t" unicode="t" horiz-adv-x="209" 
d="M194 420l-67 -420h-45l67 420h-51l6 42h51l26 165h45l-26 -165h81l-6 -42h-81z" />
    <glyph glyph-name="u" unicode="u" horiz-adv-x="472" 
d="M430 462h45l-44 -277q-5 -31 -8.5 -48t-14 -42t-26.5 -43q-56 -62 -148 -62q-90 0 -128 62q-11 18 -13 44t-0.5 39.5t6.5 49.5l44 277h45l-41 -261q-6 -46 -6.5 -83.5t24 -61.5t76.5 -24q40 0 67.5 13t43 39t23.5 52t14 65z" />
    <glyph glyph-name="v" unicode="v" horiz-adv-x="433" 
d="M124 462l107 -381l224 381h46l-288 -487l-135 487h46z" />
    <glyph glyph-name="w" unicode="w" horiz-adv-x="752" 
d="M124 462l103 -379l227 404l100 -404l220 379h46l-286 -487l-100 399l-225 -399l-131 487h46z" />
    <glyph glyph-name="x" unicode="x" horiz-adv-x="443" 
d="M231 244l-138 218h54l118 -187l177 187h54l-206 -218l149 -244h-53l-131 212l-198 -212h-53z" />
    <glyph glyph-name="y" unicode="y" horiz-adv-x="460" 
d="M214 -8l-148 470h47l131 -418l243 418h46l-426 -732h-46z" />
    <glyph glyph-name="z" unicode="z" horiz-adv-x="480" 
d="M105 42h375l-7 -42h-470l445 420h-317l6 42h411z" />
    <glyph glyph-name="braceleft" unicode="{" horiz-adv-x="300" 
d="M81 255l7 44q43 27 64 51t28 64l27 176q15 89 51 125.5t120 38.5l-7 -46q-96 0 -110 -80l-29 -186q-11 -71 -33 -103.5t-66 -59.5l-1 -5q35 -25 46.5 -60t0.5 -108l-30 -185q-7 -48 17.5 -64t67.5 -16l-7 -44q-84 3 -108.5 39t-10.5 124l28 176q6 41 -7.5 66t-47.5 53z
" />
    <glyph glyph-name="bar" unicode="|" horiz-adv-x="388" 
d="M234 886h42v-1181h-42v1181z" />
    <glyph glyph-name="braceright" unicode="}" horiz-adv-x="300" 
d="M306 299l-7 -44q-42 -27 -63.5 -52.5t-27.5 -66.5l-28 -176q-14 -87 -50.5 -123.5t-120.5 -39.5l7 44q97 0 109 80l30 185q11 73 33.5 108t65.5 60l1 5q-35 26 -46.5 59t-0.5 104l29 186q14 80 -84 80l7 46q84 -2 109 -39t10 -125l-27 -176q-7 -40 6 -64t48 -51z" />
    <glyph glyph-name="asciitilde" unicode="~" 
d="M251 314q39 0 111 -36q9 -4 26.5 -13.5t27 -14t22 -8.5t21.5 -4q53 0 109 80l45 -23q-87 -109 -164 -109q-37 0 -103 38q-68 38 -104 38q-31 0 -56 -19t-55 -55l-44 23q1 1 15.5 16t18 18.5t17.5 16.5t20.5 17t20 13t23.5 12.5t23 6.5t26 3z" />
    <glyph glyph-name="uni00A0" unicode="&#xa0;" horiz-adv-x="310" 
 />
    <glyph glyph-name="exclamdown" unicode="&#xa1;" horiz-adv-x="320" 
d="M235 472q17 0 27 -12t7 -29q-2 -17 -16 -29t-31 -12t-27 12t-8 29q3 17 17 29t31 12zM235 321l-97 -611h-48l97 611h48z" />
    <glyph glyph-name="cent" unicode="&#xa2;" 
d="M596 568l-10 -60q-52 70 -133 76l-63 -399q92 8 162 83h2l-9 -61q-80 -60 -161 -64l-21 -128h-45l21 129q-87 9 -136.5 77t-35.5 158q15 96 84 166t164 80l19 117h45l-19 -116q79 -3 136 -58zM345 186l63 396q-72 -10 -128 -67.5t-67 -130.5t26 -130.5t106 -67.5z" />
    <glyph glyph-name="sterling" unicode="&#xa3;" 
d="M89 -10l-20 39q29 29 68.5 47.5t75.5 17.5q72 55 83 119l1 29h-124l7 45h112l-59 138q-21 43 -28.5 76t-1.5 74q12 81 80.5 135t150.5 54q83 0 129.5 -58.5t30.5 -140.5h-48q11 67 -23.5 110.5t-101.5 43.5q-60 0 -110.5 -44.5t-60.5 -104.5q-7 -46 28 -117q5 -10 18 -39
l19.5 -43.5t15 -38.5t13.5 -45h136l-7 -45h-127l-3 -33q-10 -68 -77 -126l10 -3q7 -2 40 -15.5t58 -21.5t41 -8q62 0 119 82l37 -24q-30 -43 -72.5 -73t-85.5 -30q-36 0 -108 30q-68 29 -97 29q-50 0 -119 -59z" />
    <glyph glyph-name="currency" unicode="&#xa4;" 
d="M147 498l42 36l35 -42q89 58 173 58t155 -58l49 42l30 -36l-46 -40q40 -82 28 -158q-14 -79 -79 -158l34 -40l-42 -36l-35 42q-89 -58 -173 -58t-155 58l-49 -42l-30 36l46 40q-40 84 -27 158q12 76 78 158zM390 502q-89 -2 -158 -59.5t-81 -142.5q-12 -82 39.5 -142
t135.5 -60t154 60t85 142q15 85 -36.5 142.5t-138.5 59.5z" />
    <glyph glyph-name="yen" unicode="&#xa5;" 
d="M337 322l-31 75h-161l7 45h134l-132 312h58l158 -377l276 377h58l-230 -312h134l-7 -45h-160l-56 -75h204l-7 -45h-204l-44 -277h-48l44 277h-204l7 45h204z" />
    <glyph glyph-name="brokenbar" unicode="&#xa6;" horiz-adv-x="388" 
d="M234 797h41v-413h-41v413zM234 206h41v-411h-41v411z" />
    <glyph glyph-name="section" unicode="&#xa7;" 
d="M335 155q54 0 100 39t54 93q9 54 -24.5 94t-87.5 40q-55 0 -101.5 -40t-55.5 -94q-8 -54 26 -93t89 -39zM142 -11h48l-2 -13q-9 -63 13.5 -93.5t84.5 -30.5q57 0 97.5 31t49.5 86q5 31 -3 53t-32 38t-39.5 23t-50.5 19q-77 27 -112.5 66t-23.5 116q9 59 46 104.5t94 67.5
q-46 24 -63.5 59.5t-8.5 90.5q12 75 68 116.5t132 41.5q89 0 117 -44t21 -137h-48q21 136 -102 136q-54 0 -93 -32.5t-48 -86.5q-4 -25 1 -44.5t13 -30.5t28.5 -23t31.5 -16t39 -14q11 -4 17 -6q32 -11 52 -22t41 -31t27.5 -52.5t-0.5 -76.5q-17 -111 -139 -167
q100 -42 82 -155q-12 -76 -68.5 -115.5t-134.5 -39.5q-88 0 -119.5 42.5t-16.5 129.5z" />
    <glyph glyph-name="dieresis" unicode="&#xa8;" horiz-adv-x="421" 
d="M224 674q17 0 26.5 -12t6.5 -28q-2 -16 -15.5 -28t-30.5 -12q-16 0 -26 11.5t-8 28.5q3 17 17 28.5t30 11.5zM411 674q17 0 26.5 -12t6.5 -28q-2 -16 -15.5 -28t-30.5 -12q-16 0 -26 11.5t-8 28.5q3 17 17 28.5t30 11.5z" />
    <glyph glyph-name="copyright" unicode="&#xa9;" horiz-adv-x="800" 
d="M399 -10q-105 0 -186 52t-119 141.5t-21 194.5q26 160 157.5 273t291.5 113t255 -113t70 -273t-156.5 -274t-291.5 -114zM407 38q141 0 255.5 99t136.5 241q22 141 -61 239.5t-224 98.5q-142 0 -256 -98.5t-137 -239.5q-22 -142 61 -241t225 -99zM598 308h48
q-17 -68 -75.5 -109t-127.5 -41q-95 0 -144.5 63.5t-34.5 159.5q16 98 83 160t164 62q71 0 115 -39t43 -107h-48q-1 44 -35 71t-82 27q-75 0 -127 -49.5t-64 -123.5q-12 -72 26.5 -124t111.5 -52q48 0 90.5 27.5t56.5 74.5z" />
    <glyph glyph-name="ordfeminine" unicode="&#xaa;" horiz-adv-x="336" 
d="M279 730q-46 0 -82 -33t-43 -77q-7 -45 18 -78t74 -33q53 0 89.5 33t44.5 81q7 45 -21.5 76t-79.5 31zM435 758l-44 -277h-29l8 50h-2q-20 -26 -54.5 -41t-68.5 -15q-67 0 -100.5 42t-24.5 104q10 62 56.5 102.5t113.5 40.5q77 0 106 -54h2l8 48h29z" />
    <glyph glyph-name="guillemotleft" unicode="&#xab;" horiz-adv-x="397" 
d="M260 320l98 -142l-33 -27l-119 169l172 169l25 -27zM140 320l98 -142l-33 -27l-119 169l172 169l25 -27z" />
    <glyph glyph-name="logicalnot" unicode="&#xac;" 
d="M534 99l34 218h-464l8 48h512l-42 -266h-48z" />
    <glyph glyph-name="uni00AD" unicode="&#xad;" horiz-adv-x="190" 
d="M54 342h190l-7 -45h-190z" />
    <glyph glyph-name="registered" unicode="&#xae;" horiz-adv-x="800" 
d="M399 -10q-105 0 -186 52t-119 141.5t-21 194.5q26 160 157.5 273t291.5 113t255 -113t70 -273t-156.5 -274t-291.5 -114zM407 38q141 0 255.5 99t136.5 241q22 141 -61 239.5t-224 98.5q-142 0 -256 -98.5t-137 -239.5q-22 -142 61 -241t225 -99zM518 353l97 -195h-62
l-90 195h-99l-31 -195h-48l67 423h185q81 0 111 -28.5t21 -83.5q-18 -112 -151 -116zM372 401h83q1 0 26.5 -0.5t31.5 0.5t27.5 2.5t30 6t22 12t20 20t8.5 28.5q6 37 -24 50t-80 13h-125z" />
    <glyph glyph-name="macron" unicode="&#xaf;" horiz-adv-x="456" 
d="M182 674h305l-7 -45h-305z" />
    <glyph glyph-name="degree" unicode="&#xb0;" horiz-adv-x="400" 
d="M447 614q-10 -62 -61 -106t-113 -44t-99 44t-27 106q9 61 60.5 105.5t113.5 44.5q61 0 98.5 -44t27.5 -106zM313 722q-45 0 -80.5 -31.5t-43.5 -76.5q-7 -46 19 -77t72 -31q45 0 81.5 31.5t43.5 76.5t-19.5 76.5t-72.5 31.5z" />
    <glyph glyph-name="plusminus" unicode="&#xb1;" 
d="M337 320l30 192h48l-30 -192h232l-8 -48h-232l-30 -192h-48l30 192h-232l8 48h232zM54 0l8 48h512l-8 -48h-512z" />
    <glyph glyph-name="twosuperior" unicode="&#xb2;" horiz-adv-x="372" 
d="M168 340h222l-6 -34h-302l212 185q31 27 48 43.5t37.5 46t24.5 53.5q7 43 -21 69.5t-76 26.5q-51 0 -86.5 -27t-42.5 -72h-34q10 55 44 85q53 48 124 48q61 0 98 -38t28 -94q-11 -66 -112 -154z" />
    <glyph glyph-name="threesuperior" unicode="&#xb3;" horiz-adv-x="372" 
d="M266 525l6 34q44 0 76.5 24.5t39.5 65.5q6 36 -17.5 58.5t-64.5 22.5q-88 0 -105 -78h-34q13 52 51 82t94 30q53 0 85 -34t25 -82q-6 -35 -30 -63t-61 -42q34 -13 51.5 -43.5t12.5 -66.5q-9 -56 -56.5 -94.5t-108.5 -38.5q-56 0 -91 33t-27 84h34q-2 -39 21 -61t67 -22
q47 0 83 27.5t43 69.5q7 43 -20 68.5t-74 25.5z" />
    <glyph glyph-name="acute" unicode="&#xb4;" horiz-adv-x="313" 
d="M289 714l58 -19l-147 -145l-35 17z" />
    <glyph glyph-name="mu" unicode="&#xb5;" horiz-adv-x="472" 
d="M72 -270h-45l116 732h45l-36 -228q-5 -45 -5.5 -90t23.5 -78.5t71 -33.5q40 0 67.5 13t43 39t23.5 52t14 65l41 261h45l-44 -277q-5 -31 -8.5 -48t-14 -42t-26.5 -43q-56 -62 -148 -62q-34 0 -66 22t-40 60h-2z" />
    <glyph glyph-name="paragraph" unicode="&#xb6;" 
d="M254 -178l87 548q-76 -1 -115.5 55t-26.5 135q30 194 233 194h197l-7 -45h-40l-140 -887h-48l140 887h-92l-140 -887h-48z" />
    <glyph glyph-name="periodcentered" unicode="&#xb7;" horiz-adv-x="310" 
d="M202 297q17 0 27 -12t8 -29q-3 -17 -17 -29t-31 -12t-27 12t-7 29q2 17 16 29t31 12z" />
    <glyph glyph-name="cedilla" unicode="&#xb8;" horiz-adv-x="299" 
d="M217 -42l-133 -141l-35 19l116 144z" />
    <glyph glyph-name="onesuperior" unicode="&#xb9;" horiz-adv-x="372" 
d="M324 720h-76l20 34h95l-71 -448h-34z" />
    <glyph glyph-name="ordmasculine" unicode="&#xba;" horiz-adv-x="328" 
d="M284 764q66 0 105.5 -41.5t29.5 -102.5q-10 -62 -62.5 -103.5t-118.5 -41.5q-64 0 -103 42.5t-30 101.5q10 60 62 102.5t117 42.5zM277 730q-48 0 -87 -33.5t-46 -78.5q-7 -44 21.5 -76.5t76.5 -32.5q50 0 90.5 31.5t47.5 77.5q8 47 -22 79.5t-81 32.5z" />
    <glyph glyph-name="guillemotright" unicode="&#xbb;" horiz-adv-x="397" 
d="M95 178l144 142l-99 142l33 27l120 -169l-173 -169zM215 178l144 142l-99 142l33 27l120 -169l-173 -169z" />
    <glyph glyph-name="onequarter" unicode="&#xbc;" horiz-adv-x="930" 
d="M290 720h-76l20 34h95l-71 -448h-34zM771 772l29 -18l-569 -771l-29 18zM782 116h66l-5 -34h-66l-13 -82h-34l13 82h-259l1 4l347 382h6zM748 116l40 251h-5l-225 -247l-1 -4h191z" />
    <glyph glyph-name="onehalf" unicode="&#xbd;" horiz-adv-x="930" 
d="M290 720h-76l20 34h95l-71 -448h-34zM611 34h222l-5 -34h-302l211 185q32 28 48.5 44t37.5 45.5t25 53.5q7 43 -21.5 69.5t-76.5 26.5q-51 0 -86.5 -27t-42.5 -72h-34q12 56 45 85q53 48 124 48q61 0 98 -38t28 -94q-11 -67 -113 -154zM727 772l29 -18l-569 -771l-29 18z
" />
    <glyph glyph-name="threequarters" unicode="&#xbe;" horiz-adv-x="930" 
d="M822 116h66l-5 -34h-66l-13 -82h-34l13 82h-259l1 4l347 382h6zM788 116l40 251h-5l-225 -247l-1 -4h191zM280 525l6 34q44 0 76.5 24.5t39.5 65.5q6 36 -17.5 58.5t-64.5 22.5q-88 0 -105 -78h-34q13 52 51 82t94 30q53 0 85 -34t25 -82q-6 -35 -30 -63t-61 -42
q34 -13 51.5 -43.5t12.5 -66.5q-9 -56 -56.5 -94.5t-108.5 -38.5q-56 0 -91 33t-27 84h34q-2 -39 21 -61t67 -22q47 0 83 27.5t43 69.5q7 43 -20 68.5t-74 25.5zM824 772l29 -18l-569 -771l-29 18z" />
    <glyph glyph-name="questiondown" unicode="&#xbf;" horiz-adv-x="491" 
d="M162 159h-48q8 69 59.5 115t122.5 46q66 0 105 -42.5t29 -106.5t-53 -100t-114 -53q-42 -11 -62.5 -18t-46.5 -21.5t-39.5 -38.5t-19.5 -60q-9 -57 22 -97t89 -40q56 0 99.5 36.5t50.5 90.5q5 32 4 53h46q0 -42 -3 -64q-12 -70 -72 -115.5t-133 -45.5q-80 0 -122 50.5
t-29 129.5t60.5 118.5t133.5 60.5q26 6 39.5 10t34 13t32 19.5t21.5 28t14 40.5q7 47 -19.5 77t-75.5 30t-83.5 -34.5t-41.5 -81.5zM323 472q17 0 27 -12t7 -29q-2 -17 -16 -29t-31 -12t-27 12t-8 29q3 17 17 29t31 12z" />
    <glyph glyph-name="Agrave" unicode="&#xc0;" horiz-adv-x="641" 
d="M525 248h-331l-140 -248h-49l439 779l192 -779h-49zM514 293l-89 364l-206 -364h295zM390 952l64 19l78 -147l-41 -17z" />
    <glyph glyph-name="Aacute" unicode="&#xc1;" horiz-adv-x="641" 
d="M525 248h-331l-140 -248h-49l439 779l192 -779h-49zM514 293l-89 364l-206 -364h295zM494 971l58 -19l-147 -145l-35 17z" />
    <glyph glyph-name="Acircumflex" unicode="&#xc2;" horiz-adv-x="641" 
d="M525 248h-331l-140 -248h-49l439 779l192 -779h-49zM514 293l-89 364l-206 -364h295zM317 845l155 106l121 -106l-43 -29l-88 77l-114 -77z" />
    <glyph glyph-name="Atilde" unicode="&#xc3;" horiz-adv-x="641" 
d="M525 248h-331l-140 -248h-49l439 779l192 -779h-49zM514 293l-89 364l-206 -364h295zM340 843l-27 22q15 27 38.5 45.5t49.5 18.5q25 0 67 -19q49 -20 60 -20q34 0 54 41l26 -22q-11 -27 -37.5 -46t-53.5 -19q-18 0 -62 20t-65 20q-30 0 -50 -41z" />
    <glyph glyph-name="Adieresis" unicode="&#xc4;" horiz-adv-x="641" 
d="M525 248h-331l-140 -248h-49l439 779l192 -779h-49zM514 293l-89 364l-206 -364h295zM374 931q17 0 27 -12t7 -28q-2 -16 -15.5 -28t-30.5 -12q-16 0 -26 11.5t-8 28.5q3 17 16.5 28.5t29.5 11.5zM561 931q17 0 27 -12t7 -28q-2 -16 -15.5 -28t-30.5 -12q-16 0 -26 11.5
t-8 28.5q3 17 16.5 28.5t29.5 11.5z" />
    <glyph glyph-name="Aring" unicode="&#xc5;" horiz-adv-x="641" 
d="M525 248h-331l-140 -248h-49l439 779l192 -779h-49zM514 293l-89 364l-206 -364h295zM475 971q36 0 57.5 -25.5t15.5 -61.5t-35.5 -61.5t-65.5 -25.5t-57.5 25.5t-15.5 61.5t35.5 61.5t65.5 25.5zM468 931q-19 0 -35 -13.5t-19 -33.5q-3 -19 8.5 -33t31.5 -14
q19 0 35 13.5t19 33.5q3 19 -8.5 33t-31.5 14z" />
    <glyph glyph-name="AE" unicode="&#xc6;" horiz-adv-x="942" 
d="M519 248h-323l-137 -248h-54l423 754h329l10 -45h-311l69 -274h303l12 -45h-303l85 -345h312l11 -45h-365zM507 293l-87 355l-198 -355h285z" />
    <glyph glyph-name="Ccedilla" unicode="&#xc7;" horiz-adv-x="739" 
d="M785 666l-10 -66q-35 53 -99.5 86t-134.5 33q-140 0 -258 -103.5t-140 -243.5q-21 -133 64 -233q42 -47 101.5 -75.5t124.5 -28.5q66 0 144 32.5t127 82.5l-11 -66q-127 -94 -266 -94q-158 0 -257 114.5t-74 271.5q25 160 159.5 274t295.5 114q68 0 129.5 -26t104.5 -72z
M437 -42l-133 -141l-35 19l116 144z" />
    <glyph glyph-name="Egrave" unicode="&#xc8;" horiz-adv-x="507" 
d="M553 709h-312l-43 -274h304l-7 -45h-304l-55 -345h312l-7 -45h-360l119 754h360zM323 952l64 19l78 -147l-41 -17z" />
    <glyph glyph-name="Eacute" unicode="&#xc9;" horiz-adv-x="507" 
d="M553 709h-312l-43 -274h304l-7 -45h-304l-55 -345h312l-7 -45h-360l119 754h360zM447 971l58 -19l-147 -145l-35 17z" />
    <glyph glyph-name="Ecircumflex" unicode="&#xca;" horiz-adv-x="507" 
d="M553 709h-312l-43 -274h304l-7 -45h-304l-55 -345h312l-7 -45h-360l119 754h360zM250 845l155 106l121 -106l-43 -29l-88 77l-114 -77z" />
    <glyph glyph-name="Edieresis" unicode="&#xcb;" horiz-adv-x="507" 
d="M553 709h-312l-43 -274h304l-7 -45h-304l-55 -345h312l-7 -45h-360l119 754h360zM307 931q17 0 27 -12t7 -28q-2 -16 -15.5 -28t-30.5 -12q-16 0 -26 11.5t-8 28.5q3 17 16.5 28.5t29.5 11.5zM494 931q17 0 27 -12t7 -28q-2 -16 -15.5 -28t-30.5 -12q-16 0 -26 11.5
t-8 28.5q3 17 16.5 28.5t29.5 11.5z" />
    <glyph glyph-name="Igrave" unicode="&#xcc;" horiz-adv-x="210" 
d="M248 754l-119 -754h-48l119 754h48zM175 952l64 19l78 -147l-41 -17z" />
    <glyph glyph-name="Iacute" unicode="&#xcd;" horiz-adv-x="210" 
d="M248 754l-119 -754h-48l119 754h48zM279 971l58 -19l-147 -145l-35 17z" />
    <glyph glyph-name="Icircumflex" unicode="&#xce;" horiz-adv-x="210" 
d="M248 754l-119 -754h-48l119 754h48zM101 845l155 106l121 -106l-43 -29l-88 77l-114 -77z" />
    <glyph glyph-name="Idieresis" unicode="&#xcf;" horiz-adv-x="210" 
d="M248 754l-119 -754h-48l119 754h48zM159 931q17 0 27 -12t7 -28q-2 -16 -15.5 -28t-30.5 -12q-16 0 -26 11.5t-8 28.5q3 17 16.5 28.5t29.5 11.5zM346 931q17 0 27 -12t7 -28q-2 -16 -15.5 -28t-30.5 -12q-16 0 -26 11.5t-8 28.5q3 17 16.5 28.5t29.5 11.5z" />
    <glyph glyph-name="Eth" unicode="&#xd0;" horiz-adv-x="652" 
d="M241 709l-43 -275h173l-7 -45h-173l-55 -344h87q160 0 268 91q115 99 138 240q24 151 -70 251q-43 46 -99 64t-132 18h-87zM81 0l62 389h-81l7 45h81l50 320h136q90 0 153 -20.5t112 -74.5q103 -112 76 -283q-27 -164 -160 -276q-68 -57 -138.5 -78.5t-161.5 -21.5h-136z
" />
    <glyph glyph-name="Ntilde" unicode="&#xd1;" horiz-adv-x="843" 
d="M881 754l-123 -779l-526 673l-103 -648h-48l121 764l527 -668l104 658h48zM441 843l-27 22q15 27 38.5 45.5t49.5 18.5q25 0 67 -19q49 -20 60 -20q34 0 54 41l26 -22q-11 -27 -37.5 -46t-53.5 -19q-18 0 -62 20t-65 20q-30 0 -50 -41z" />
    <glyph glyph-name="Ograve" unicode="&#xd2;" horiz-adv-x="854" 
d="M548 764q104 0 186 -52t121 -141.5t23 -193.5q-17 -104 -84.5 -193.5t-166 -141.5t-202.5 -52q-159 0 -256.5 114t-72.5 273t158.5 273t293.5 114zM541 719q-141 0 -258 -101t-139 -241q-15 -91 19 -170t106 -125.5t164 -46.5q140 0 257 101.5t140 240.5
q22 140 -63.5 241t-225.5 101zM497 952l64 19l78 -147l-41 -17z" />
    <glyph glyph-name="Oacute" unicode="&#xd3;" horiz-adv-x="854" 
d="M548 764q104 0 186 -52t121 -141.5t23 -193.5q-17 -104 -84.5 -193.5t-166 -141.5t-202.5 -52q-159 0 -256.5 114t-72.5 273t158.5 273t293.5 114zM541 719q-141 0 -258 -101t-139 -241q-15 -91 19 -170t106 -125.5t164 -46.5q140 0 257 101.5t140 240.5
q22 140 -63.5 241t-225.5 101zM601 971l58 -19l-147 -145l-35 17z" />
    <glyph glyph-name="Ocircumflex" unicode="&#xd4;" horiz-adv-x="854" 
d="M548 764q104 0 186 -52t121 -141.5t23 -193.5q-17 -104 -84.5 -193.5t-166 -141.5t-202.5 -52q-159 0 -256.5 114t-72.5 273t158.5 273t293.5 114zM541 719q-141 0 -258 -101t-139 -241q-15 -91 19 -170t106 -125.5t164 -46.5q140 0 257 101.5t140 240.5
q22 140 -63.5 241t-225.5 101zM423 845l155 106l121 -106l-43 -29l-88 77l-114 -77z" />
    <glyph glyph-name="Otilde" unicode="&#xd5;" horiz-adv-x="854" 
d="M548 764q104 0 186 -52t121 -141.5t23 -193.5q-17 -104 -84.5 -193.5t-166 -141.5t-202.5 -52q-159 0 -256.5 114t-72.5 273t158.5 273t293.5 114zM541 719q-141 0 -258 -101t-139 -241q-15 -91 19 -170t106 -125.5t164 -46.5q140 0 257 101.5t140 240.5
q22 140 -63.5 241t-225.5 101zM447 843l-27 22q15 27 38.5 45.5t49.5 18.5q25 0 67 -19q49 -20 60 -20q34 0 54 41l26 -22q-11 -27 -37.5 -46t-53.5 -19q-18 0 -62 20t-65 20q-30 0 -50 -41z" />
    <glyph glyph-name="Odieresis" unicode="&#xd6;" horiz-adv-x="854" 
d="M548 764q104 0 186 -52t121 -141.5t23 -193.5q-17 -104 -84.5 -193.5t-166 -141.5t-202.5 -52q-159 0 -256.5 114t-72.5 273t158.5 273t293.5 114zM541 719q-141 0 -258 -101t-139 -241q-15 -91 19 -170t106 -125.5t164 -46.5q140 0 257 101.5t140 240.5
q22 140 -63.5 241t-225.5 101zM481 931q17 0 27 -12t7 -28q-2 -16 -15.5 -28t-30.5 -12q-16 0 -26 11.5t-8 28.5q3 17 16.5 28.5t29.5 11.5zM668 931q17 0 27 -12t7 -28q-2 -16 -15.5 -28t-30.5 -12q-16 0 -26 11.5t-8 28.5q3 17 16.5 28.5t29.5 11.5z" />
    <glyph glyph-name="multiply" unicode="&#xd7;" 
d="M320 256l-190 222l35 34l190 -226l262 226l25 -34l-259 -222l188 -224l-35 -32l-190 225l-261 -225l-26 32z" />
    <glyph glyph-name="Oslash" unicode="&#xd8;" horiz-adv-x="854" 
d="M195 151l557 481q-82 87 -211 87q-141 0 -258 -101t-139 -241q-21 -130 51 -226zM776 605l-558 -482q86 -88 215 -88q140 0 257 101.5t140 240.5q20 132 -54 228zM54 29l104 90q-86 112 -62 258q25 159 158.5 273t293.5 114q146 0 242 -99l106 91l25 -26l-107 -92
q88 -112 64 -261q-17 -104 -84.5 -193.5t-166 -141.5t-202.5 -52q-151 0 -244 101l-105 -91z" />
    <glyph glyph-name="Ugrave" unicode="&#xd9;" horiz-adv-x="660" 
d="M585 298l72 456h48l-74 -470q-8 -49 -14 -76t-23.5 -63.5t-46.5 -66.5q-44 -42 -102 -65t-117 -23q-58 0 -109 22.5t-82 65.5q-27 42 -28.5 97.5t10.5 108.5l74 470h48l-72 -456q-7 -45 -10 -70.5t1 -61t18 -58.5q21 -34 66.5 -53.5t91.5 -19.5q47 0 98 19.5t82 53.5
q22 23 36.5 59t19.5 60t13 71zM385 952l64 19l78 -147l-41 -17z" />
    <glyph glyph-name="Uacute" unicode="&#xda;" horiz-adv-x="660" 
d="M585 298l72 456h48l-74 -470q-8 -49 -14 -76t-23.5 -63.5t-46.5 -66.5q-44 -42 -102 -65t-117 -23q-58 0 -109 22.5t-82 65.5q-27 42 -28.5 97.5t10.5 108.5l74 470h48l-72 -456q-7 -45 -10 -70.5t1 -61t18 -58.5q21 -34 66.5 -53.5t91.5 -19.5q47 0 98 19.5t82 53.5
q22 23 36.5 59t19.5 60t13 71zM519 971l58 -19l-147 -145l-35 17z" />
    <glyph glyph-name="Ucircumflex" unicode="&#xdb;" horiz-adv-x="660" 
d="M585 298l72 456h48l-74 -470q-8 -49 -14 -76t-23.5 -63.5t-46.5 -66.5q-44 -42 -102 -65t-117 -23q-58 0 -109 22.5t-82 65.5q-27 42 -28.5 97.5t10.5 108.5l74 470h48l-72 -456q-7 -45 -10 -70.5t1 -61t18 -58.5q21 -34 66.5 -53.5t91.5 -19.5q47 0 98 19.5t82 53.5
q22 23 36.5 59t19.5 60t13 71zM326 845l155 106l121 -106l-43 -29l-88 77l-114 -77z" />
    <glyph glyph-name="Udieresis" unicode="&#xdc;" horiz-adv-x="660" 
d="M585 298l72 456h48l-74 -470q-8 -49 -14 -76t-23.5 -63.5t-46.5 -66.5q-44 -42 -102 -65t-117 -23q-58 0 -109 22.5t-82 65.5q-27 42 -28.5 97.5t10.5 108.5l74 470h48l-72 -456q-7 -45 -10 -70.5t1 -61t18 -58.5q21 -34 66.5 -53.5t91.5 -19.5q47 0 98 19.5t82 53.5
q22 23 36.5 59t19.5 60t13 71zM384 931q17 0 27 -12t7 -28q-2 -16 -15.5 -28t-30.5 -12q-16 0 -26 11.5t-8 28.5q3 17 16.5 28.5t29.5 11.5zM571 931q17 0 27 -12t7 -28q-2 -16 -15.5 -28t-30.5 -12q-16 0 -26 11.5t-8 28.5q3 17 16.5 28.5t29.5 11.5z" />
    <glyph glyph-name="Yacute" unicode="&#xdd;" horiz-adv-x="559" 
d="M306 322l-183 432h53l162 -382l282 382h53l-319 -432l-51 -322h-48zM483 971l58 -19l-147 -145l-35 17z" />
    <glyph glyph-name="Thorn" unicode="&#xde;" horiz-adv-x="472" 
d="M81 0l119 754h48l-25 -160h85q54 0 91 -8.5t65 -35.5q59 -57 44 -155q-16 -97 -87 -149q-62 -48 -176 -48h-85l-31 -198h-48zM167 243h87q86 0 139 41q56 44 67 113q12 81 -38 122q-34 30 -127 30h-79z" />
    <glyph glyph-name="germandbls" unicode="&#xdf;" horiz-adv-x="534" 
d="M77 0l67 420h-49l6 42h49l30 188q14 90 55 131q54 57 142 57q69 0 106.5 -46.5t26.5 -115.5q-7 -46 -36.5 -83.5t-72.5 -52.5l-1 -2q79 -23 119.5 -97.5t26.5 -162.5q-18 -112 -110 -192.5t-206 -91.5l7 42q97 14 173 81t91 161q15 98 -38.5 162t-150.5 74l7 42
q57 1 97.5 35t49.5 90q8 51 -21.5 83t-81.5 32q-68 0 -104 -48q-24 -33 -37 -114l-100 -634h-45z" />
    <glyph glyph-name="agrave" unicode="&#xe0;" horiz-adv-x="560" 
d="M324 430q-77 0 -137.5 -59t-72.5 -137q-13 -83 28 -142.5t122 -59.5q85 0 143 59.5t72 147.5q13 82 -29.5 136.5t-125.5 54.5zM556 462l-73 -462h-45l13 83h-2q-31 -43 -84.5 -68t-106.5 -25q-103 0 -154 70t-35 174q16 103 89 170.5t175 67.5q54 0 98 -23.5t66 -66.5h2
l12 80h45zM294 695l64 19l78 -147l-41 -17z" />
    <glyph glyph-name="aacute" unicode="&#xe1;" horiz-adv-x="560" 
d="M324 430q-77 0 -137.5 -59t-72.5 -137q-13 -83 28 -142.5t122 -59.5q85 0 143 59.5t72 147.5q13 82 -29.5 136.5t-125.5 54.5zM556 462l-73 -462h-45l13 83h-2q-31 -43 -84.5 -68t-106.5 -25q-103 0 -154 70t-35 174q16 103 89 170.5t175 67.5q54 0 98 -23.5t66 -66.5h2
l12 80h45zM428 714l58 -19l-147 -145l-35 17z" />
    <glyph glyph-name="acircumflex" unicode="&#xe2;" horiz-adv-x="560" 
d="M324 430q-77 0 -137.5 -59t-72.5 -137q-13 -83 28 -142.5t122 -59.5q85 0 143 59.5t72 147.5q13 82 -29.5 136.5t-125.5 54.5zM556 462l-73 -462h-45l13 83h-2q-31 -43 -84.5 -68t-106.5 -25q-103 0 -154 70t-35 174q16 103 89 170.5t175 67.5q54 0 98 -23.5t66 -66.5h2
l12 80h45zM235 588l155 106l121 -106l-42 -29l-88 77l-114 -77z" />
    <glyph glyph-name="atilde" unicode="&#xe3;" horiz-adv-x="560" 
d="M324 430q-77 0 -137.5 -59t-72.5 -137q-13 -83 28 -142.5t122 -59.5q85 0 143 59.5t72 147.5q13 82 -29.5 136.5t-125.5 54.5zM556 462l-73 -462h-45l13 83h-2q-31 -43 -84.5 -68t-106.5 -25q-103 0 -154 70t-35 174q16 103 89 170.5t175 67.5q54 0 98 -23.5t66 -66.5h2
l12 80h45zM259 586l-27 22q15 27 38.5 45.5t49.5 18.5q25 0 67 -19q49 -20 60 -20q34 0 55 41l25 -22q-11 -27 -37 -46t-54 -19q-16 0 -62 20q-42 20 -65 20q-30 0 -50 -41z" />
    <glyph glyph-name="adieresis" unicode="&#xe4;" horiz-adv-x="560" 
d="M324 430q-77 0 -137.5 -59t-72.5 -137q-13 -83 28 -142.5t122 -59.5q85 0 143 59.5t72 147.5q13 82 -29.5 136.5t-125.5 54.5zM556 462l-73 -462h-45l13 83h-2q-31 -43 -84.5 -68t-106.5 -25q-103 0 -154 70t-35 174q16 103 89 170.5t175 67.5q54 0 98 -23.5t66 -66.5h2
l12 80h45zM294 674q17 0 26.5 -12t6.5 -28q-2 -16 -15.5 -28t-30.5 -12q-16 0 -26 11.5t-8 28.5q3 17 17 28.5t30 11.5zM481 674q17 0 26.5 -12t6.5 -28q-2 -16 -15.5 -28t-30.5 -12q-16 0 -26 11.5t-8 28.5q3 17 17 28.5t30 11.5z" />
    <glyph glyph-name="aring" unicode="&#xe5;" horiz-adv-x="560" 
d="M324 430q-77 0 -137.5 -59t-72.5 -137q-13 -83 28 -142.5t122 -59.5q85 0 143 59.5t72 147.5q13 82 -29.5 136.5t-125.5 54.5zM556 462l-73 -462h-45l13 83h-2q-31 -43 -84.5 -68t-106.5 -25q-103 0 -154 70t-35 174q16 103 89 170.5t175 67.5q54 0 98 -23.5t66 -66.5h2
l12 80h45zM393 714q36 0 57.5 -25.5t15.5 -61.5q-5 -36 -34.5 -61.5t-65.5 -25.5t-57.5 25.5t-16.5 61.5q6 36 35.5 61.5t65.5 25.5zM387 674q-20 0 -36 -14t-19 -33t8.5 -33t31.5 -14q19 0 35 13.5t19 33.5t-8.5 33.5t-30.5 13.5z" />
    <glyph glyph-name="ae" unicode="&#xe6;" horiz-adv-x="849" 
d="M458 268h356q2 65 -41 113.5t-109 48.5q-70 0 -129.5 -48t-76.5 -114zM260 237q-61 0 -112.5 -24t-60.5 -78q-6 -38 15 -62.5t51.5 -32.5t68.5 -8q34 0 69 9.5t65.5 34t35.5 59.5q9 53 -32 77.5t-100 24.5zM785 136l34 -26q-44 -56 -102.5 -88t-122.5 -32
q-60 0 -108 30.5t-63 83.5h-2q-24 -57 -84 -85.5t-126 -28.5q-74 0 -127 37t-42 107q12 72 79.5 108.5t144.5 36.5q92 0 141 -49q15 88 -16 144t-116 56q-65 0 -162 -42l8 46q80 38 170 38q64 0 106 -33.5t54 -94.5q34 58 94 93t123 35q101 0 151 -71.5t34 -174.5h-401
q-11 -81 30.5 -137.5t120.5 -56.5q51 0 99.5 28.5t82.5 75.5z" />
    <glyph glyph-name="ccedilla" unicode="&#xe7;" horiz-adv-x="477" 
d="M497 415l-10 -60q-56 75 -151 75q-81 0 -145.5 -59t-76.5 -139q-13 -80 32.5 -140t125.5 -60q102 0 183 83l-9 -61q-84 -64 -179 -64q-102 0 -158.5 70t-39.5 172q16 101 95.5 170.5t180.5 69.5q94 0 152 -57zM306 -42l-133 -141l-35 19l116 144z" />
    <glyph glyph-name="egrave" unicode="&#xe8;" horiz-adv-x="510" 
d="M514 227h-401q-16 -86 28 -140.5t126 -54.5q52 0 99.5 28.5t80.5 76.5l34 -22q-40 -60 -99.5 -92.5t-127.5 -32.5q-100 0 -150.5 70.5t-34.5 171.5q15 99 89 169.5t173 70.5q102 0 151 -71t32 -174zM120 269h356q2 66 -40 113.5t-111 47.5q-70 0 -129.5 -47.5
t-75.5 -113.5zM269 695l64 19l78 -147l-41 -17z" />
    <glyph glyph-name="eacute" unicode="&#xe9;" horiz-adv-x="510" 
d="M514 227h-401q-16 -86 28 -140.5t126 -54.5q52 0 99.5 28.5t80.5 76.5l34 -22q-40 -60 -99.5 -92.5t-127.5 -32.5q-100 0 -150.5 70.5t-34.5 171.5q15 99 89 169.5t173 70.5q102 0 151 -71t32 -174zM120 269h356q2 66 -40 113.5t-111 47.5q-70 0 -129.5 -47.5
t-75.5 -113.5zM403 714l58 -19l-147 -145l-35 17z" />
    <glyph glyph-name="ecircumflex" unicode="&#xea;" horiz-adv-x="510" 
d="M514 227h-401q-16 -86 28 -140.5t126 -54.5q52 0 99.5 28.5t80.5 76.5l34 -22q-40 -60 -99.5 -92.5t-127.5 -32.5q-100 0 -150.5 70.5t-34.5 171.5q15 99 89 169.5t173 70.5q102 0 151 -71t32 -174zM120 269h356q2 66 -40 113.5t-111 47.5q-70 0 -129.5 -47.5
t-75.5 -113.5zM210 588l155 106l121 -106l-42 -29l-88 77l-114 -77z" />
    <glyph glyph-name="edieresis" unicode="&#xeb;" horiz-adv-x="510" 
d="M514 227h-401q-16 -86 28 -140.5t126 -54.5q52 0 99.5 28.5t80.5 76.5l34 -22q-40 -60 -99.5 -92.5t-127.5 -32.5q-100 0 -150.5 70.5t-34.5 171.5q15 99 89 169.5t173 70.5q102 0 151 -71t32 -174zM120 269h356q2 66 -40 113.5t-111 47.5q-70 0 -129.5 -47.5
t-75.5 -113.5zM269 674q17 0 26.5 -12t6.5 -28q-2 -16 -15.5 -28t-30.5 -12q-16 0 -26 11.5t-8 28.5q3 17 17 28.5t30 11.5zM456 674q17 0 26.5 -12t6.5 -28q-2 -16 -15.5 -28t-30.5 -12q-16 0 -26 11.5t-8 28.5q3 17 17 28.5t30 11.5z" />
    <glyph glyph-name="igrave" unicode="&#xec;" horiz-adv-x="234" 
d="M212 462l-73 -462h-45l73 462h45zM130 695l64 19l78 -147l-41 -17z" />
    <glyph glyph-name="iacute" unicode="&#xed;" horiz-adv-x="234" 
d="M212 462l-73 -462h-45l73 462h45zM264 714l58 -19l-147 -145l-35 17z" />
    <glyph glyph-name="icircumflex" unicode="&#xee;" horiz-adv-x="234" 
d="M212 462l-73 -462h-45l73 462h45zM72 588l155 106l121 -106l-42 -29l-88 77l-114 -77z" />
    <glyph glyph-name="idieresis" unicode="&#xef;" horiz-adv-x="234" 
d="M212 462l-73 -462h-45l73 462h45zM131 674q17 0 26.5 -12t6.5 -28q-2 -16 -15.5 -28t-30.5 -12q-16 0 -26 11.5t-8 28.5q3 17 17 28.5t30 11.5zM318 674q17 0 26.5 -12t6.5 -28q-2 -16 -15.5 -28t-30.5 -12q-16 0 -26 11.5t-8 28.5q3 17 17 28.5t30 11.5z" />
    <glyph glyph-name="eth" unicode="&#xf0;" horiz-adv-x="547" 
d="M215 798l37 30q68 -44 124 -95l169 87l20 -33l-160 -82q88 -91 129.5 -204.5t21.5 -240.5q-21 -133 -103.5 -201.5t-182.5 -68.5t-158.5 71t-42.5 170q15 98 97 170t184 72q93 0 158 -70q-15 81 -47 144t-100 135l-159 -82l-20 34l149 75q-40 39 -116 89zM337 430
q-81 0 -146 -59t-78 -141q-12 -80 34.5 -139t126.5 -59q85 0 152 57t80 141q13 85 -35 142.5t-134 57.5z" />
    <glyph glyph-name="ntilde" unicode="&#xf1;" horiz-adv-x="490" 
d="M195 462l-11 -72h2q56 82 150 82q85 0 110.5 -48.5t10.5 -144.5l-44 -279h-45l44 279q5 42 5.5 76t-22 54.5t-70.5 20.5q-135 0 -167 -202l-36 -228h-45l73 462h45zM224 586l-27 22q15 27 38.5 45.5t49.5 18.5q25 0 67 -19q49 -20 60 -20q34 0 55 41l25 -22
q-11 -27 -37 -46t-54 -19q-16 0 -62 20q-42 20 -65 20q-30 0 -50 -41z" />
    <glyph glyph-name="ograve" unicode="&#xf2;" horiz-adv-x="547" 
d="M347 472q102 0 161.5 -69.5t43.5 -171.5t-98 -171.5t-184 -69.5q-99 0 -158 70.5t-44 169.5q16 100 97.5 171t181.5 71zM337 430q-81 0 -146 -59t-78 -141q-12 -80 34.5 -139t126.5 -59q85 0 152 57t80 141q13 85 -35 142.5t-134 57.5zM287 695l64 19l78 -147l-41 -17z
" />
    <glyph glyph-name="oacute" unicode="&#xf3;" horiz-adv-x="547" 
d="M347 472q102 0 161.5 -69.5t43.5 -171.5t-98 -171.5t-184 -69.5q-99 0 -158 70.5t-44 169.5q16 100 97.5 171t181.5 71zM337 430q-81 0 -146 -59t-78 -141q-12 -80 34.5 -139t126.5 -59q85 0 152 57t80 141q13 85 -35 142.5t-134 57.5zM421 714l58 -19l-147 -145l-35 17z
" />
    <glyph glyph-name="ocircumflex" unicode="&#xf4;" horiz-adv-x="547" 
d="M347 472q102 0 161.5 -69.5t43.5 -171.5t-98 -171.5t-184 -69.5q-99 0 -158 70.5t-44 169.5q16 100 97.5 171t181.5 71zM337 430q-81 0 -146 -59t-78 -141q-12 -80 34.5 -139t126.5 -59q85 0 152 57t80 141q13 85 -35 142.5t-134 57.5zM229 588l155 106l121 -106l-42 -29
l-88 77l-114 -77z" />
    <glyph glyph-name="otilde" unicode="&#xf5;" horiz-adv-x="547" 
d="M347 472q102 0 161.5 -69.5t43.5 -171.5t-98 -171.5t-184 -69.5q-99 0 -158 70.5t-44 169.5q16 100 97.5 171t181.5 71zM337 430q-81 0 -146 -59t-78 -141q-12 -80 34.5 -139t126.5 -59q85 0 152 57t80 141q13 85 -35 142.5t-134 57.5zM252 586l-27 22q15 27 38.5 45.5
t49.5 18.5q25 0 67 -19q49 -20 60 -20q34 0 55 41l25 -22q-11 -27 -37 -46t-54 -19q-16 0 -62 20q-42 20 -65 20q-30 0 -50 -41z" />
    <glyph glyph-name="odieresis" unicode="&#xf6;" horiz-adv-x="547" 
d="M347 472q102 0 161.5 -69.5t43.5 -171.5t-98 -171.5t-184 -69.5q-99 0 -158 70.5t-44 169.5q16 100 97.5 171t181.5 71zM337 430q-81 0 -146 -59t-78 -141q-12 -80 34.5 -139t126.5 -59q85 0 152 57t80 141q13 85 -35 142.5t-134 57.5zM287 674q17 0 26.5 -12t6.5 -28
q-2 -16 -15.5 -28t-30.5 -12q-16 0 -26 11.5t-8 28.5q3 17 17 28.5t30 11.5zM474 674q17 0 26.5 -12t6.5 -28q-2 -16 -15.5 -28t-30.5 -12q-16 0 -26 11.5t-8 28.5q3 17 17 28.5t30 11.5z" />
    <glyph glyph-name="divide" unicode="&#xf7;" 
d="M91 232l7 48h512l-7 -48h-512zM323 82q17 0 27 -12t7 -29q-2 -17 -16 -29t-31 -12t-27 12t-8 29q3 17 17 29t31 12zM391 512q17 0 27 -12t8 -29q-3 -17 -17 -29t-31 -12t-27 12t-7 29q2 17 16 29t31 12z" />
    <glyph glyph-name="oslash" unicode="&#xf8;" horiz-adv-x="547" 
d="M136 108l322 278q-47 44 -121 44q-81 0 -146 -59t-78 -141q-11 -69 23 -122zM482 357l-324 -277q45 -48 116 -48q85 0 152 57t80 141q12 73 -24 127zM31 17l69 60q-46 66 -32 153q16 100 97.5 171t181.5 71q90 0 147 -55l73 63l23 -29l-71 -62q47 -64 33 -158
q-16 -102 -98 -171.5t-184 -69.5q-90 0 -147 60l-70 -60z" />
    <glyph glyph-name="ugrave" unicode="&#xf9;" horiz-adv-x="472" 
d="M430 462h45l-44 -277q-5 -31 -8.5 -48t-14 -42t-26.5 -43q-56 -62 -148 -62q-90 0 -128 62q-11 18 -13 44t-0.5 39.5t6.5 49.5l44 277h45l-41 -261q-6 -46 -6.5 -83.5t24 -61.5t76.5 -24q40 0 67.5 13t43 39t23.5 52t14 65zM240 695l64 19l78 -147l-41 -17z" />
    <glyph glyph-name="uacute" unicode="&#xfa;" horiz-adv-x="472" 
d="M430 462h45l-44 -277q-5 -31 -8.5 -48t-14 -42t-26.5 -43q-56 -62 -148 -62q-90 0 -128 62q-11 18 -13 44t-0.5 39.5t6.5 49.5l44 277h45l-41 -261q-6 -46 -6.5 -83.5t24 -61.5t76.5 -24q40 0 67.5 13t43 39t23.5 52t14 65zM394 714l58 -19l-147 -145l-35 17z" />
    <glyph glyph-name="ucircumflex" unicode="&#xfb;" horiz-adv-x="472" 
d="M430 462h45l-44 -277q-5 -31 -8.5 -48t-14 -42t-26.5 -43q-56 -62 -148 -62q-90 0 -128 62q-11 18 -13 44t-0.5 39.5t6.5 49.5l44 277h45l-41 -261q-6 -46 -6.5 -83.5t24 -61.5t76.5 -24q40 0 67.5 13t43 39t23.5 52t14 65zM191 588l155 106l121 -106l-42 -29l-88 77
l-114 -77z" />
    <glyph glyph-name="udieresis" unicode="&#xfc;" horiz-adv-x="472" 
d="M430 462h45l-44 -277q-5 -31 -8.5 -48t-14 -42t-26.5 -43q-56 -62 -148 -62q-90 0 -128 62q-11 18 -13 44t-0.5 39.5t6.5 49.5l44 277h45l-41 -261q-6 -46 -6.5 -83.5t24 -61.5t76.5 -24q40 0 67.5 13t43 39t23.5 52t14 65zM250 674q17 0 26.5 -12t6.5 -28
q-2 -16 -15.5 -28t-30.5 -12q-16 0 -26 11.5t-8 28.5q3 17 17 28.5t30 11.5zM437 674q17 0 26.5 -12t6.5 -28q-2 -16 -15.5 -28t-30.5 -12q-16 0 -26 11.5t-8 28.5q3 17 17 28.5t30 11.5z" />
    <glyph glyph-name="yacute" unicode="&#xfd;" horiz-adv-x="460" 
d="M214 -8l-148 470h47l131 -418l243 418h46l-426 -732h-46zM393 714l58 -19l-147 -145l-35 17z" />
    <glyph glyph-name="thorn" unicode="&#xfe;" horiz-adv-x="560" 
d="M369 430q-85 0 -143 -60.5t-72 -148.5q-13 -82 29.5 -135.5t124.5 -53.5q79 0 138.5 57t72.5 137q13 83 -27.5 143.5t-122.5 60.5zM135 80l-56 -350h-45l174 1095h45l-71 -446h2q31 43 84.5 68t106.5 25q103 0 154 -70.5t35 -174.5q-16 -103 -88.5 -170t-175.5 -67
q-55 0 -98.5 23.5t-64.5 66.5h-2z" />
    <glyph glyph-name="ydieresis" unicode="&#xff;" horiz-adv-x="460" 
d="M214 -8l-148 470h47l131 -418l243 418h46l-426 -732h-46zM249 674q17 0 26.5 -12t6.5 -28q-2 -16 -15.5 -28t-30.5 -12q-16 0 -26 11.5t-8 28.5q3 17 17 28.5t30 11.5zM436 674q17 0 26.5 -12t6.5 -28q-2 -16 -15.5 -28t-30.5 -12q-16 0 -26 11.5t-8 28.5q3 17 17 28.5
t30 11.5z" />
    <glyph glyph-name="dotlessi" unicode="&#x131;" horiz-adv-x="234" 
d="M212 462l-73 -462h-45l73 462h45z" />
    <glyph glyph-name="Lslash" unicode="&#x141;" horiz-adv-x="327" 
d="M81 0l56 354l-90 -57l8 49l90 57l55 351h48l-50 -318l142 89l-8 -49l-142 -89l-54 -342h192l-7 -45h-240z" />
    <glyph glyph-name="lslash" unicode="&#x142;" horiz-adv-x="229" 
d="M92 0l62 391l-84 -54l8 45l83 54l62 389h45l-57 -357l84 53l-8 -45l-83 -53l-67 -423h-45z" />
    <glyph glyph-name="OE" unicode="&#x152;" horiz-adv-x="1193" 
d="M767 0l31 194h-2q-60 -94 -162.5 -149t-209.5 -55q-74 0 -140 29t-112 80q-102 113 -76 278q25 160 159.5 273.5t295.5 113.5q105 0 188 -56.5t114 -149.5h2l31 196h360l-7 -45h-312l-43 -274h305l-7 -45h-305l-55 -345h312l-7 -45h-360zM543 719q-139 0 -258 -101.5
t-141 -240.5q-11 -69 6 -133t60 -111q39 -46 98 -72t125 -26q143 0 262 106q109 99 131 236q22 140 -61 241t-222 101z" />
    <glyph glyph-name="oe" unicode="&#x153;" horiz-adv-x="945" 
d="M949 227h-399q-17 -80 27.5 -137.5t123.5 -57.5q111 0 180 107l34 -23q-39 -60 -98 -93t-127 -33q-66 0 -115.5 37.5t-63.5 98.5q-39 -61 -104.5 -98.5t-133.5 -37.5q-101 0 -161 69.5t-44 170.5q16 102 99 172t185 70q68 0 121.5 -36.5t71.5 -97.5q33 63 93 98.5
t128 35.5q104 0 152 -70t31 -175zM557 269h354q2 66 -40 113.5t-111 47.5q-70 0 -128.5 -47.5t-74.5 -113.5zM344 430q-85 0 -151 -58.5t-80 -144.5q-13 -78 35.5 -136.5t127.5 -58.5q83 0 149.5 58t79.5 140q13 81 -33.5 140.5t-127.5 59.5z" />
    <glyph glyph-name="Scaron" unicode="&#x160;" horiz-adv-x="544" 
d="M568 658l-38 -28q-43 89 -139 89q-60 0 -107.5 -42t-57.5 -102q-4 -28 3.5 -50t29.5 -40t36 -26.5t45 -24.5l132 -75q77 -55 62 -150q-15 -92 -96 -155.5t-175 -63.5q-77 0 -129 44t-67 118l45 19q15 -63 55 -99.5t106 -36.5q75 0 138.5 52t75.5 126q4 28 -4.5 51.5
t-28 40.5t-38.5 29t-45 26l-12 6l-125 72q-70 49 -56 135q13 84 75.5 137.5t147.5 53.5q57 0 102.5 -28.5t64.5 -77.5zM566 923l-155 -107l-121 107l43 28l88 -76l114 76z" />
    <glyph glyph-name="scaron" unicode="&#x161;" horiz-adv-x="375" 
d="M373 398l-42 -20q-16 52 -73 52q-30 0 -58 -21.5t-32 -50.5q-5 -30 15 -49t51.5 -30.5t62.5 -25t49 -43.5t11 -76q-10 -63 -59.5 -103.5t-112.5 -40.5q-58 0 -96 33t-43 89l46 14q14 -94 100 -94q43 0 78 30t43 74q3 20 -1.5 35.5t-17.5 26t-25 16t-32 13.5
q-30 12 -46 19.5t-37 23t-28.5 36.5t-3.5 49q8 51 50.5 84t94.5 33q36 0 66 -21t40 -53zM431 666l-154 -107l-122 107l43 28l88 -76l114 76z" />
    <glyph glyph-name="Ydieresis" unicode="&#x178;" horiz-adv-x="559" 
d="M306 322l-183 432h53l162 -382l282 382h53l-319 -432l-51 -322h-48zM345 931q17 0 27 -12t7 -28q-2 -16 -15.5 -28t-30.5 -12q-16 0 -26 11.5t-8 28.5q3 17 16.5 28.5t29.5 11.5zM532 931q17 0 27 -12t7 -28q-2 -16 -15.5 -28t-30.5 -12q-16 0 -26 11.5t-8 28.5
q3 17 16.5 28.5t29.5 11.5z" />
    <glyph glyph-name="Zcaron" unicode="&#x17d;" horiz-adv-x="568" 
d="M103 45h447l-7 -45h-531l572 709h-416l7 45h500zM580 923l-155 -107l-121 107l43 28l88 -76l114 76z" />
    <glyph glyph-name="zcaron" unicode="&#x17e;" horiz-adv-x="480" 
d="M105 42h375l-7 -42h-470l445 420h-317l6 42h411zM508 666l-154 -107l-122 107l43 28l88 -76l114 76z" />
    <glyph glyph-name="florin" unicode="&#x192;" 
d="M446 486h116l-16 -45h-115l-132 -380q-2 -7 -8.5 -26t-10 -28t-10.5 -26.5t-12 -27t-13.5 -24.5t-16.5 -23t-19.5 -18t-23 -15.5t-26.5 -9t-31 -3.5q-36 0 -77 17l15 42q34 -14 65 -14q44 0 63 25q23 31 47 100l144 411h-69l16 45h68l74 214q23 67 43 92q38 46 102 46
q32 0 62 -15l-15 -41q-24 11 -50 11q-16 0 -28.5 -3.5t-22.5 -12t-17 -15t-13.5 -22t-9.5 -22.5t-9 -26t-8 -25z" />
    <glyph glyph-name="circumflex" unicode="&#x2c6;" horiz-adv-x="426" 
d="M168 588l155 106l121 -106l-42 -29l-88 77l-114 -77z" />
    <glyph glyph-name="caron" unicode="&#x2c7;" horiz-adv-x="426" 
d="M456 666l-154 -107l-122 107l43 28l88 -76l114 76z" />
    <glyph glyph-name="uni02C9" unicode="&#x2c9;" horiz-adv-x="456" 
d="M182 674h305l-7 -45h-305z" />
    <glyph glyph-name="breve" unicode="&#x2d8;" horiz-adv-x="434" 
d="M182 674h44q10 -61 88 -61q79 0 108 61h43q-14 -50 -59.5 -78t-98.5 -28t-89.5 28t-35.5 78z" />
    <glyph glyph-name="dotaccent" unicode="&#x2d9;" horiz-adv-x="313" 
d="M264 674q17 0 26.5 -12t6.5 -28q-2 -16 -15.5 -28t-30.5 -12q-16 0 -26 11.5t-8 28.5q3 17 17 28.5t30 11.5z" />
    <glyph glyph-name="ring" unicode="&#x2da;" horiz-adv-x="324" 
d="M275 714q36 0 57.5 -25.5t15.5 -61.5q-5 -36 -34.5 -61.5t-65.5 -25.5t-57.5 25.5t-16.5 61.5q6 36 35.5 61.5t65.5 25.5zM269 674q-20 0 -36 -14t-19 -33t8.5 -33t31.5 -14q19 0 35 13.5t19 33.5t-8.5 33.5t-30.5 13.5z" />
    <glyph glyph-name="ogonek" unicode="&#x2db;" horiz-adv-x="321" 
d="M153 2h43v-2q-86 -57 -94 -105q-4 -29 13 -44t46 -15q20 0 60 12l-17 -44q-32 -9 -53 -9q-43 0 -71.5 27t-21.5 69q9 61 95 111z" />
    <glyph glyph-name="tilde" unicode="&#x2dc;" horiz-adv-x="439" 
d="M198 586l-27 22q15 27 38.5 45.5t49.5 18.5q25 0 67 -19q49 -20 60 -20q34 0 55 41l25 -22q-11 -27 -37 -46t-54 -19q-16 0 -62 20q-42 20 -65 20q-30 0 -50 -41z" />
    <glyph glyph-name="hungarumlaut" unicode="&#x2dd;" horiz-adv-x="446" 
d="M290 714l58 -19l-147 -145l-35 17zM423 714l58 -19l-147 -145l-35 17z" />
    <glyph glyph-name="uni03A9" unicode="&#x3a9;" horiz-adv-x="815" 
d="M246 38v3q-61 57 -92 148t-13 203q26 163 138 264t252 101q141 0 216.5 -105t51.5 -257q-19 -117 -81.5 -210.5t-138.5 -143.5v-3h179l-6 -38h-252l4 28q88 48 158.5 143.5t90.5 218.5q9 56 -0.5 113t-35.5 106t-76.5 80t-116.5 31q-127 0 -222 -96.5t-117 -235.5
q-18 -117 22.5 -215t110.5 -145l-4 -28h-251l6 38h177z" />
    <glyph glyph-name="uni03BC" unicode="&#x3bc;" horiz-adv-x="472" 
d="M72 -270h-45l116 732h45l-36 -228q-5 -45 -5.5 -90t23.5 -78.5t71 -33.5q40 0 67.5 13t43 39t23.5 52t14 65l41 261h45l-44 -277q-5 -31 -8.5 -48t-14 -42t-26.5 -43q-56 -62 -148 -62q-34 0 -66 22t-40 60h-2z" />
    <glyph glyph-name="pi" unicode="&#x3c0;" horiz-adv-x="614" 
d="M664 512h-98l-56 -353q-16 -106 -8 -159h-44q-14 28 6 150l57 362h-235q-26 -126 -77.5 -285.5t-92.5 -226.5h-45q44 78 93.5 231.5t75.5 280.5q-99 0 -137 -16l-7 30q52 25 149 25h431z" />
    <glyph glyph-name="endash" unicode="&#x2013;" horiz-adv-x="500" 
d="M54 342h500l-7 -45h-500z" />
    <glyph glyph-name="emdash" unicode="&#x2014;" horiz-adv-x="1000" 
d="M184 342h740l-7 -45h-740z" />
    <glyph glyph-name="quoteleft" unicode="&#x2018;" horiz-adv-x="259" 
d="M201 524l-43 13l119 227l28 -11z" />
    <glyph glyph-name="quoteright" unicode="&#x2019;" horiz-adv-x="259" 
d="M262 764l43 -13l-119 -227l-28 11z" />
    <glyph glyph-name="quotesinglbase" unicode="&#x201a;" horiz-adv-x="259" 
d="M153 74l43 -14l-119 -226l-29 11z" />
    <glyph glyph-name="quotedblleft" unicode="&#x201c;" horiz-adv-x="390" 
d="M332 524l-43 13l119 227l28 -11zM201 524l-43 13l119 227l28 -11z" />
    <glyph glyph-name="quotedblright" unicode="&#x201d;" horiz-adv-x="390" 
d="M262 764l43 -13l-119 -227l-28 11zM393 764l43 -13l-119 -227l-28 11z" />
    <glyph glyph-name="quotedblbase" unicode="&#x201e;" horiz-adv-x="390" 
d="M153 74l43 -14l-119 -226l-29 11zM284 74l43 -14l-119 -226l-29 11z" />
    <glyph glyph-name="dagger" unicode="&#x2020;" 
d="M405 754h48l-31 -199h181l-7 -45h-181l-109 -688h-48l109 688h-181l7 45h181z" />
    <glyph glyph-name="daggerdbl" unicode="&#x2021;" 
d="M405 754h48l-31 -199h181l-7 -45h-181l-68 -428h181l-7 -45h-181l-34 -215h-48l34 215h-181l7 45h181l68 428h-181l7 45h181z" />
    <glyph glyph-name="bullet" unicode="&#x2022;" 
d="M401 566q80 0 125 -55t33 -134q-13 -78 -75.5 -133t-142.5 -55t-126 55t-33 133q12 79 75.5 134t143.5 55z" />
    <glyph glyph-name="ellipsis" unicode="&#x2026;" horiz-adv-x="1000" 
d="M179 75q17 0 27 -12t7 -29q-2 -17 -16 -29t-31 -12t-27 12t-8 29q3 17 17 29t31 12zM512 75q17 0 27 -12t7 -29q-2 -17 -16 -29t-31 -12t-27 12t-8 29q3 17 17 29t31 12zM845 75q17 0 27 -12t7 -29q-2 -17 -16 -29t-31 -12t-27 12t-8 29q3 17 17 29t31 12z" />
    <glyph glyph-name="perthousand" unicode="&#x2030;" horiz-adv-x="1034" 
d="M900 289q64 0 101 -42t27 -107q-10 -63 -60.5 -105t-114.5 -42t-101.5 42t-27.5 105q10 65 61 107t115 42zM893 247q-45 0 -82.5 -31t-44.5 -76q-7 -43 21 -74t73 -31t82 31t44 74q7 44 -20.5 75.5t-72.5 31.5zM301 761q64 0 101 -42t27 -107q-10 -63 -60.5 -105
t-114.5 -42t-101.5 42t-27.5 105q10 65 61 107t115 42zM294 719q-45 0 -82.5 -31.5t-44.5 -75.5q-7 -43 21 -74t72 -31q45 0 82.5 31t44.5 74q7 45 -20.5 76t-72.5 31zM530 289q64 0 101 -42t27 -107q-10 -63 -60.5 -105t-114.5 -42t-101.5 42t-27.5 105q10 65 61 107
t115 42zM523 247q-45 0 -82.5 -31t-44.5 -76q-7 -43 21 -74t73 -31t82 31t44 74q7 44 -20.5 75.5t-72.5 31.5zM660 771l30 -17l-570 -771l-28 18z" />
    <glyph glyph-name="guilsinglleft" unicode="&#x2039;" horiz-adv-x="277" 
d="M140 320l98 -142l-33 -27l-119 169l172 169l25 -27z" />
    <glyph glyph-name="guilsinglright" unicode="&#x203a;" horiz-adv-x="277" 
d="M95 178l144 142l-99 142l33 27l120 -169l-173 -169z" />
    <glyph glyph-name="fraction" unicode="&#x2044;" horiz-adv-x="129" 
d="M394 772l29 -18l-569 -771l-29 18z" />
    <glyph glyph-name="Euro" unicode="&#x20ac;" 
d="M681 703l-8 -52q-59 68 -170 68q-104 0 -174 -72.5t-100 -182.5h357l-21 -40h-346q-5 -21 -9 -47q-4 -24 -6 -46h312l-20 -40h-293q-5 -123 44 -190.5t148 -67.5q106 0 191 68l-8 -52q-74 -58 -193 -58q-118 0 -177 75t-53 225h-74l20 40h56q2 17 6 46q2 17 9 47h-70
l20 40h59q38 135 119 217t207 82q116 0 174 -60z" />
    <glyph glyph-name="afii61289" unicode="&#x2113;" horiz-adv-x="518" 
d="M484 143l25 -19q-91 -128 -214 -128q-86 0 -119.5 60t-19.5 150l2 14q-20 -13 -77 -55l-14 31q94 70 99 74l49 309q11 70 33 121t49.5 77t54 37.5t54.5 11.5q62 0 87 -46t14 -118q-16 -100 -93 -199t-209 -209l-4 -28q-16 -98 16 -146t90 -48q53 0 100 33.5t77 77.5z
M258 587l-45 -283q111 99 176 182.5t79 169.5q21 133 -71 133q-42 0 -82.5 -49.5t-56.5 -152.5z" />
    <glyph glyph-name="trademark" unicode="&#x2122;" horiz-adv-x="940" 
d="M497 754l-6 -42h-139l-60 -379h-42l60 379h-139l6 42h320zM580 754h72l86 -327h2l190 327h72l-66 -421h-42l60 379h-4l-225 -379h-2l-103 379h-4l-60 -379h-42z" />
    <glyph glyph-name="Omega" unicode="&#x2126;" horiz-adv-x="815" 
d="M246 38v3q-61 57 -92 148t-13 203q26 163 138 264t252 101q141 0 216.5 -105t51.5 -257q-19 -117 -81.5 -210.5t-138.5 -143.5v-3h179l-6 -38h-252l4 28q88 48 158.5 143.5t90.5 218.5q9 56 -0.5 113t-35.5 106t-76.5 80t-116.5 31q-127 0 -222 -96.5t-117 -235.5
q-18 -117 22.5 -215t110.5 -145l-4 -28h-251l6 38h177z" />
    <glyph glyph-name="estimated" unicode="&#x212e;" horiz-adv-x="1055" 
d="M1018 366h-697q-5 0 -5 -4v-211q0 -13 9 -24q110 -115 263 -115q81 0 153 34.5t124 94.5h62q-59 -70 -148 -110t-192 -40q-178 0 -303.5 113t-125.5 273t125.5 273.5t303.5 113.5q179 0 305 -113.5t126 -273.5v-11zM860 394v211q0 15 -11 26q-112 110 -261 110
q-150 0 -262 -114q-10 -10 -10 -26v-207q0 -7 5 -7h534q5 0 5 7z" />
    <glyph glyph-name="partialdiff" unicode="&#x2202;" horiz-adv-x="587" 
d="M230 746l-16 31q84 58 182 58q109 0 170.5 -104.5t31.5 -297.5q-30 -187 -121 -313t-224 -126q-98 0 -139.5 72t-25.5 172q19 118 100.5 192.5t174.5 74.5q39 0 73 -13.5t55 -33.5t34 -38t18 -34h1q1 4 11 56q26 161 -25 258.5t-142 97.5q-83 0 -158 -52zM261 31h1
q87 0 159 85.5t106 213.5q-10 50 -54.5 93.5t-111.5 43.5q-77 0 -144.5 -66t-82.5 -160q-14 -91 20.5 -150.5t106.5 -59.5z" />
    <glyph glyph-name="Delta" unicode="&#x2206;" horiz-adv-x="717" 
d="M38 0l6 40l412 728h51l179 -728l-6 -40h-642zM89 38h547l-114 469q-2 9 -23.5 92.5t-25.5 113.5h-5q-10 -23 -52.5 -97.5t-50.5 -89.5z" />
    <glyph glyph-name="product" unicode="&#x220f;" horiz-adv-x="881" 
d="M852 704h-128v-807h-45v807h-358v-807h-44v807h-129v41h704v-41z" />
    <glyph glyph-name="summation" unicode="&#x2211;" horiz-adv-x="730" 
d="M704 -103h-561v32l319 390l-304 394v32h529v-41h-460v-3l290 -377l-310 -380v-3h497v-44z" />
    <glyph glyph-name="minus" unicode="&#x2212;" 
d="M91 232l7 48h512l-7 -48h-512z" />
    <glyph glyph-name="uni2215" unicode="&#x2215;" horiz-adv-x="129" 
d="M394 772l29 -18l-569 -771l-29 18z" />
    <glyph glyph-name="uni2219" unicode="&#x2219;" horiz-adv-x="310" 
d="M202 297q17 0 27 -12t8 -29q-3 -17 -17 -29t-31 -12t-27 12t-7 29q2 17 16 29t31 12z" />
    <glyph glyph-name="radical" unicode="&#x221a;" horiz-adv-x="737" 
d="M735 880l-245 -1046h-48l-185 513l-84 -31l-12 32l126 48l160 -438q11 -38 17 -67h1q2 11 7 35.5t6 28.5l218 925h39z" />
    <glyph glyph-name="infinity" unicode="&#x221e;" horiz-adv-x="928" 
d="M871 311v-1q0 -72 -48.5 -118.5t-113.5 -46.5q-35 0 -70.5 19t-60.5 42t-75 74q-34 -37 -47.5 -50.5t-44 -39t-59 -35.5t-60.5 -10q-65 0 -112 47.5t-47 114.5q0 70 47.5 117t118.5 47q39 0 80 -23t65 -46.5t63 -67.5q36 39 49.5 53t44 39.5t58 35t59.5 9.5
q70 0 111.5 -44.5t41.5 -115.5zM298 181h1q22 0 43 7.5t42 24t34 28.5t35.5 35t29.5 30q-2 3 -15.5 18t-17 19t-16 17.5t-18 18t-17.5 15.5t-20 15t-20 11t-22 10t-22.5 5.5t-24.5 2.5q-54 0 -85.5 -39.5t-30.5 -93.5q0 -52 34 -88t90 -36zM713 438h-1q-28 0 -57.5 -16
t-48 -32.5t-45.5 -44.5t-34 -35q50 -52 71.5 -72t53.5 -38.5t61 -18.5q54 0 86.5 38t32.5 88q0 62 -33.5 96.5t-85.5 34.5z" />
    <glyph glyph-name="integral" unicode="&#x222b;" horiz-adv-x="487" 
d="M474 887l-13 -32q-16 12 -41 12q-35 0 -57 -23q-42 -46 -42 -198q0 -82 7 -276t7 -276q0 -148 -51 -217q-33 -41 -89 -41q-38 0 -64 19l12 34q27 -15 52 -15q32 0 53 26q43 52 43 196q0 82 -7 278t-7 276q0 86 12.5 137t42.5 80q36 37 86 37q35 0 56 -17z" />
    <glyph glyph-name="approxequal" unicode="&#x2248;" horiz-adv-x="706" 
d="M626 450l23 -20q-51 -98 -137 -98q-9 0 -17.5 1t-14.5 2t-16 4.5t-15 5t-17 7.5l-16 8t-19.5 10t-19.5 10q-68 38 -109 38q-62 0 -114 -84l-25 19q53 99 147 99q19 0 39.5 -6t32.5 -11.5t31.5 -16.5t25.5 -14q5 -2 18.5 -9.5t18 -9.5t16 -7t19 -7t18 -3.5t21.5 -1.5
q34 0 59.5 20t50.5 64zM626 273l23 -20q-50 -97 -137 -97q-22 0 -45.5 7t-37 13.5t-52.5 27.5q-70 38 -108 38q-37 0 -63.5 -22t-51.5 -63l-25 19q52 100 147 100q19 0 39.5 -5.5t32 -11.5t32 -17t25.5 -14q4 -2 13.5 -7t13.5 -7.5t12.5 -6.5t13.5 -5.5t13 -4.5t14.5 -4
t15 -2t16.5 -1q34 0 59 19.5t50 63.5z" />
    <glyph glyph-name="notequal" unicode="&#x2260;" horiz-adv-x="722" 
d="M529 540l-55 -116h190v-36h-205l-82 -169h287v-35h-302l-64 -135l-29 15l56 120h-178v35h195l80 169h-275v36h291l62 131z" />
    <glyph glyph-name="lessequal" unicode="&#x2264;" horiz-adv-x="735" 
d="M673 95l-507 249v36l507 248v-44l-465 -220v-2l465 -223v-44zM675 12h-517v36h517v-36z" />
    <glyph glyph-name="greaterequal" unicode="&#x2265;" horiz-adv-x="735" 
d="M166 628l507 -248v-36l-507 -249v44l463 221v3l-463 221v44zM675 12h-516v36h516v-36z" />
    <glyph glyph-name="lozenge" unicode="&#x25ca;" horiz-adv-x="740" 
d="M676 372l-227 -421h-38l-226 421l227 422h38zM631 371l-179 332q-9 16 -22 50h-2q-9 -26 -22 -50l-177 -329l181 -333q16 -33 20 -49h3q10 31 20 49z" />
    </font>
</defs>
</svg>
